Видения будущего Айзека Азимова / Isaac Asimov's Visions of the Future (Richard A. Diercks) [1992, США, Документальный, VHSRip] АО (Трамвай-фильм)

Reply to topic
 
Author Message

$Shorox ®

Gender: Male

Longevity: 6 years 9 months

Posts: 1888

Post 28-Feb-2015 07:23

[Quote]

Видения будущего Айзека Азимова / Isaac Asimov's Visions of the Future
Страна: США
Жанр: Документальный
Год выпуска: 1992
Продолжительность: 00:37:28
Перевод: Авторский (одноголосый) Трамвай-фильм
Режиссер: Richard A. Diercks
Описание: Айзек Азимов рассказывает о своих прогнозах на будущее человечества.
Релиз

Работа над релизом:
Перевод и озвучка - Трамвай-фильм
Подгонка аудиодорожки - sasha20072007 (kosmoaelita)


Сэмпл
Качество видео: VHSRip
Формат видео: MKV
Видео: XviD, 1 869 Kbps, 624x448, 4:3, 29.970 fps
Аудио 1: Русский АО (Трамвай-фильм), AC-3, 192 Kbps, 2 channels, 48.0 KHz
Аудио 2: Английский, MP3, 128 Kbps, 2 channels, 48.0 KHz

Скриншот с названием фильма

Скриншоты


Дополнительно

MediaInfo

General
Complete name : F:\Torrent T\Isaac Asimov Visions of the Future Vol.1 1992.XviD.VHSRip.kosmoaelita.mkv
Format : Matroska
Format version : Version 4 / Version 2
File size : 598 MiB
Duration : 37mn 27s
Overall bit rate : 2 233 Kbps
Movie name : Isaac Asimov Visions of the Future Vol.1 1992
Encoded date : UTC 2015-02-27 22:32:10
Writing application : mkvmerge v6.6.0 ('The Edge Of The In Between') built on Dec 1 2013 17:55:00
Writing library : libebml v1.3.0 + libmatroska v1.4.1
Video
ID : 1
Format : MPEG-4 Visual
Format profile : Simple@L3
Format settings, BVOP : No
Format settings, QPel : No
Format settings, GMC : No warppoints
Format settings, Matrix : Default (H.263)
Codec ID : V_MS/VFW/FOURCC / XVID
Codec ID/Hint : XviD
Duration : 37mn 27s
Bit rate : 1 869 Kbps
Width : 624 pixels
Height : 448 pixels
Display aspect ratio : 1.393
Frame rate mode : Constant
Frame rate : 29.970 fps
Color space : YUV
Chroma subsampling : 4:2:0
Bit depth : 8 bits
Scan type : Progressive
Compression mode : Lossy
Bits/(Pixel*Frame) : 0.223
Stream size : 501 MiB (84%)
Title : kosmoaelita
Writing library : XviD 1.2.0.dev47 (UTC 2006-11-01)
Default : Yes
Forced : No
Audio #1
ID : 2
Format : AC-3
Format/Info : Audio Coding 3
Mode extension : CM (complete main)
Format settings, Endianness : Big
Codec ID : A_AC3
Duration : 37mn 27s
Bit rate mode : Constant
Bit rate : 192 Kbps
Channel(s) : 2 channels
Channel positions : Front: L R
Sampling rate : 48.0 KHz
Bit depth : 16 bits
Compression mode : Lossy
Stream size : 51.4 MiB (9%)
Title : Русский АО (Трамвай-фильм)
Language : Russian
Default : Yes
Forced : No
Audio #2
ID : 3
Format : MPEG Audio
Format version : Version 1
Format profile : Layer 3
Mode : Joint stereo
Mode extension : MS Stereo
Codec ID : A_MPEG/L3
Codec ID/Hint : MP3
Duration : 37mn 27s
Bit rate mode : Constant
Bit rate : 128 Kbps
Channel(s) : 2 channels
Sampling rate : 48.0 KHz
Compression mode : Lossy
Stream size : 34.3 MiB (6%)
Writing library : LAME3.97
Encoding settings : -m j -V 4 -q 2 -lowpass 17 -b 128
Language : English
Default : No
Forced : No

Скринлист

cd Рип дополнительно залит на mail.ru cd2


Last edited by $Shorox on 2015-02-28 08:31; edited 4 times in total
[Profile] [PM]

Guest

Gender: Unknown

Post 28-Feb-2015 08:14 (after 50 minutes)

[Quote]

еще сериал с Джиллиан Андерсон ведущей был про будущее
 

$Shorox ®

Gender: Male

Longevity: 6 years 9 months

Posts: 1888

Post 28-Feb-2015 08:16 (after 2 minutes)

[Quote]

Slavnus Spacedust,
Вот ещё интересный сериал про фантастов: Фантасты-предсказатели / Prophets of Science Fiction [2012]
P.S.
Наверное правильнее будет перенести тему в раздел Трамвай-фильм.
[Profile] [PM]

Трамвай-фильм

Gender: Male

Longevity: 5 years 1 month

Posts: 1533

Location: Россия

Post 28-Feb-2015 11:43 (after 3 hours)

[Quote]

Таких сериалов была масса, как я понял это был пилотник сериала, который свет так и не увидел.
[Profile] [PM]
Display posts:    
Reply to topic

Current time is: 19-Sep 01:21

All times are UTC + 3



You cannot post new topics in this forum
You cannot reply to topics in this forum
You cannot edit your posts in this forum
You cannot delete your posts in this forum
You cannot vote in polls in this forum
You cannot attach files in this forum
You cannot download files in this forum