Сверхпространство / Гремлоиды / Hyperspace / Gremloids (Todd Durham / Тодд Дархэм) [1984, США, фантастика, комедия, DVDRip] АО (В.Котов)

Reply to topic
DL-List and Torrent activity
Size:  858 MB   |    Registered:  5 years 8 months   |    Completed:  2 times

Seeder not seen: 1 year 4 months

 
   
 
 
 
Author Message

admin ®

Gender: Male

Longevity: 8 years 1 month

Posts: 4795

Post 22-Feb-2015 19:17

[Quote]

Сверхпространство / Гремлоиды / Hyperspace / Gremloids
Страна: США
Жанр: фантастика, комедия
Год выпуска: 1984
Продолжительность: 01:26:06
Перевод: Авторский (одноголосый) _ В.Котов
Режиссер: Todd Durham / Тодд Дархэм
В ролях: Alan Marx ... Max
Paula Poundstone ... Karen
Chris Elliott ... Hopper
Robert Bloodworth ... Lord Buckethead
R.C. Nanney ... Chester / Captain Starfighter
Lisa Huss ... Alien
Gordon Petersen ... Alien
Susan Gellner ... Alien
Lane Davidson ... Alien
Joy Laurens ... Alien
John Davis ... Alien
Dave Hager ... Chief Norman (as David Hager)
Kevin O'Reilly ... Father Cleary
Fred Stevenson ... Colonel Lax
Steve Howard ... Mr. Uker
Описание: Пародия на Звездные Войны.
Из-за небольшой навигационной ошибки лорд Бакетхэд приземляется на Земле вместо того, чтобы оказаться далеко в галактике. Тем не менее он продолжает искать секретные коды и принцессу, за которой отправился в путешествие.

Качество: DVDRip ?
Формат: MKV
Видео: XviD, 1062 кбит/с, 528x320, 25 к/с
Аудио 1: Русский АО (В.Котов) (AC3, 2 ch, 192 Кбит/с)
Аудио 2: Английский (MP3, 2 ch, 128 Кбит/с)
Работа над релизом:
Видеоряд взят с синемагеддона



Пример русской озвучки

Дополнительно

слоган «They're Just Out of This World»
Also Known As (AKA)
UK (DVD box title) Gremloids
West Germany Gremlords
================================================
Для Украины: рип и оригинальный ДВД дополнительно залиты в файлохранилище
Для удаления,добавления и извлечения дорожек в mkv используйте бесплатную портативную mkvmerge GUI 7.1.0
Для присоединения потом дорожек к avi воспользуйтесь VirtualDubMod

Отзывы

слава котов жжет нереально, может сам фильм и не супер, хотя есть действительно удачные эпизоды, но с такой озвучкой просто оторваться невозможно, комедь зачетнейшая. огромное спасибо!
-----------------------------------------------

MediaInfo

Общее
Уникальный идентификатор : 221910348780098755498610008353161497748 (0xA6F260E9DD821B308C649CBE349E4C94)
Полное имя : F:\Hyperspace aka Gremloids 1984.XviD.DVDRip.Rus.kosmoaelita.mkv
Формат : Matroska
Версия формата : Version 4 / Version 2
Размер файла : 858 Мбайт
Продолжительность : 1 ч. 26 м.
Режим общего битрейта : Переменный
Общий поток : 1393 Кбит/сек
Название фильма : Гремлоиды / Сверхпространство / Hyperspace / Gremloids / 1984 / kosmoaelita
Дата кодирования : UTC 2015-02-22 15:50:48
Программа кодирования : mkvmerge v6.6.0 ('The Edge Of The In Between') built on Dec 1 2013 17:55:00
Библиотека кодирования : libebml v1.3.0 + libmatroska v1.4.1
Видео
Идентификатор : 1
Формат : MPEG-4 Visual
Профиль формата : Advanced Simple@L5
Параметр BVOP формата : Да
Параметр QPel формата : Нет
Параметр GMC формата : Без точки перехода
Параметр матрицы формата : Выборочная
Идентификатор кодека : V_MS/VFW/FOURCC / XVID
Идентификатор кодека/Подсказка : XviD
Продолжительность : 1 ч. 26 м.
Битрейт : 1062 Кбит/сек
Ширина : 528 пикселей
Высота : 320 пикселей
Соотношение сторон : 1,650
Режим частоты кадров : Постоянный
Частота кадров : 25,000 кадров/сек
Цветовое пространство : YUV
Субдискретизация насыщенности : 4:2:0
Битовая глубина : 8 бит
Тип развёртки : Прогрессивная
Метод сжатия : С потерями
Бит/(Пиксели*Кадры) : 0.251
Размер потока : 654 Мбайт (76%)
Заголовок : kosmoaelita
Библиотека кодирования : XviD 1.2.0.dev47 (UTC 2006-11-01)
Язык : English
Default : Да
Forced : Нет
Аудио #1
Идентификатор : 2
Формат : AC-3
Формат/Информация : Audio Coding 3
Расширение режима : CM (complete main)
Параметр Endianness формата : Big
Идентификатор кодека : A_AC3
Продолжительность : 1 ч. 26 м.
Вид битрейта : Постоянный
Битрейт : 192 Кбит/сек
Каналы : 2 канала
Расположение каналов : Front: L R
Частота : 48,0 КГц
Битовая глубина : 16 бит
Метод сжатия : С потерями
Размер потока : 118 Мбайт (14%)
Заголовок : Русский АО (В.Котов)
Язык : Russian
Default : Да
Forced : Нет
Аудио #2
Идентификатор : 3
Формат : MPEG Audio
Версия формата : Version 1
Профиль формата : Layer 3
Режим : Joint stereo
Расширение режима : MS Stereo
Идентификатор кодека : A_MPEG/L3
Идентификатор кодека/Подсказка : MP3
Продолжительность : 1 ч. 26 м.
Вид битрейта : Переменный
Битрейт : 111 Кбит/сек
Номинальный битрейт : 128 Кбит/сек
Каналы : 2 канала
Частота : 48,0 КГц
Метод сжатия : С потерями
Размер потока : 68,4 Мбайт (8%)
Библиотека кодирования : LAME3.97
Настройки программы : -m j -V 4 -q 2 -lowpass 17 --abr 128
Default : Нет
Forced : Нет

Скриншоты











Скринлист

cd Рип дополнительно залит на mail.ru cd2
Hyperspace aka Gremloids 1984.XviD.DVDRip.Rus.kosmoaelita.mkv.torrent
Torrent: Registered [ 2015-02-22 19:17 ]

Download .torrent

Download

34 KB

Status: checked
Completed: 2 times
Size: 858 MB
 


Last edited by admin on 2015-02-22 19:26; edited 2 times in total
[Profile] [PM]

admin ®

Gender: Male

Longevity: 8 years 1 month

Posts: 4795

Post 22-Feb-2015 19:18 (after 1 minute)

[Quote]

В отличие от рутрекера, исправлен полсекундный рассинхрон и добавлена оригинальная дорожка
[Profile] [PM]

Поручик Ржевский

Gender: Unknown

Post 27-Oct-2015 14:09 (after 8 months 4 days)

[Quote]

Спасибо!
 

Трамвай-фильм

Gender: Male

Longevity: 6 years 2 months

Posts: 1868

Location: Россия

Post 23-Feb-2016 14:27 (after 3 months 27 days)

[Quote]

По моему это экранка, причем старая, снизу как бы зазор, что был у старых киноэкранов

да и качество воспроизведения как на старом полотне, в кинозалах 1980-х
[Profile] [PM]

Трамвай-фильм

Gender: Male

Longevity: 6 years 2 months

Posts: 1868

Location: Россия

Post 23-Feb-2016 15:26 (after 59 minutes)

[Quote]

Вообще фильм забавен и содержит массу штампов на фантастику начиная с 1950-х годов, ну чем еще объяснить боевые машины времен второй мировой, в финальной сцене. Посмеялся от души.
[Profile] [PM]
Display posts:    
Reply to topic

Current time is: 26-Oct 09:36

All times are UTC + 3



You cannot post new topics in this forum
You cannot reply to topics in this forum
You cannot edit your posts in this forum
You cannot delete your posts in this forum
You cannot vote in polls in this forum
You cannot attach files in this forum
You can download files in this forum