Kagaku Ninjatai Gatchaman Fighter / Сезон: 3 / Серии: 1-3,5-19,21-32,34-48 из 48 [1979, приключения, фантастика, TVRip] (Original)

Reply to topic
DL-List and Torrent activity
Size:  2.24 GB   |    Registered:  4 years 1 month   |    Completed:  1 time

Seeder not seen: 3 years 5 months

 
   
 
 
 
Author Message

Faer ®

Gender: Male

Longevity: 4 years 3 months

Posts: 342

Location: Сербия

Post 22-Feb-2015 00:41

[Quote]

Kagaku Ninjatai Gatchaman Fighter
Год выпуска: 1979
Страна: Япония
Жанр: приключения, фантастика
Продолжительность: 00:24:00
Перевод: Отсутствует
Русские субтитры: нет
Описание: Третий сезон Гатчманов.
Доп. информация:
Качество ужасное, но это единственный полный (почти) вариант третьего сезона.
Потеряны серии: 4, 20, 33
Есть в озвучке студии Трамвай-фильм, с лучшим качеством видео/звука, но только 1-7 серии.
Все файлы залиты на cloud@mail.ru
Качество: TVRip
Формат: MP4
Видео кодек: AVC
Видео: AVC, 320х240, 4:3, 24,240fps, 239 Кбит/с
Аудио: ААС, 44.1 кГц, 96 Кбит/с, стерео
Субтитры: корейский хардсаб

MediaInfo

Общее
Полное имя : Gatchaman Fighter, episode 1, part 2 (jap).mp4
Формат : MPEG-4
Профиль формата : Base Media / Version 2
Идентификатор кодека : mp42
Размер файла : 17,4 Мбайт
Продолжительность : 7 м. 11 с.
Режим общего битрейта : Переменный
Общий поток : 337 Кбит/сек
Дата кодирования : UTC 2014-09-22 01:56:16
Дата пометки : UTC 2014-09-22 01:56:16
gsst : 0
gstd : 431913
gssd : B4A7DDA28HH1424518393957230
gshh : r8---sn-4g57kuel.googlevideo.com
Видео
Идентификатор : 1
Формат : AVC
Формат/Информация : Advanced Video Codec
Профиль формата : Baseline@L1.3
Параметр CABAC формата : Нет
Параметр ReFrames формата : 1 кадр
Идентификатор кодека : avc1
Идентификатор кодека/Информация : Advanced Video Coding
Продолжительность : 7 м. 11 с.
Битрейт : 239 Кбит/сек
Максимальный битрейт : 563 Кбит/сек
Ширина : 320 пикселей
Высота : 240 пикселей
Соотношение сторон : 4:3
Режим частоты кадров : Переменный
Частота кадров : 24,240 кадра/сек
Минимальная частота кадров : 12,121 кадров/сек
Максимальная частота кадров : 24,242 кадра/сек
Цветовое пространство : YUV
Субдискретизация насыщенности : 4:2:0
Битовая глубина : 8 бит
Тип развёртки : Прогрессивная
Бит/(Пиксели*Кадры) : 0.128
Размер потока : 12,3 Мбайт (71%)
Дата пометки : UTC 2014-09-22 01:56:20
Аудио
Идентификатор : 2
Формат : AAC
Формат/Информация : Advanced Audio Codec
Профиль формата : LC
Идентификатор кодека : 40
Продолжительность : 7 м. 11 с.
Вид битрейта : Переменный
Битрейт : 96,0 Кбит/сек
Максимальный битрейт : 103 Кбит/сек
Каналы : 2 канала
Расположение каналов : Front: L R
Частота : 44,1 КГц
Метод сжатия : С потерями
Размер потока : 4,94 Мбайт (28%)
Заголовок : IsoMedia File Produced by Google, 5-11-2011
Дата кодирования : UTC 2014-09-22 01:56:18
Дата пометки : UTC 2014-09-22 01:56:20

Скриншоты



cd Рип дополнительно залит на ОБЛАКО cd2
Gatchaman F.torrent
Torrent: Registered [ 2015-02-23 21:11 ]

Download .torrent

Download

22 KB

Status: checked
Completed: 1 times
Size: 2.24 GB
 


Last edited by Faer on 2015-02-23 21:22; edited 6 times in total
[Profile] [PM]

Faer ®

Gender: Male

Longevity: 4 years 3 months

Posts: 342

Location: Сербия

Post 22-Feb-2015 00:42 (after 1 minute)

[Quote]

Рип с Пандоры, с ютубовским пережатием. Что может быть хуже. Буду дополнять по мере скачивания.
По причине криворукости недостатка времени, не стал собирать части в 1 файл.


Last edited by Faer on 2015-02-22 13:47; edited 1 time in total
[Profile] [PM]

Трамвай-фильм

Gender: Male

Longevity: 4 years 8 months

Posts: 1438

Location: Россия

Post 22-Feb-2015 13:20 (after 12 hours)

[Quote]

Ура. Осталось только жапанский выучить. Или Игл-Райдеров смотреть.
[Profile] [PM]

Faer ®

Gender: Male

Longevity: 4 years 3 months

Posts: 342

Location: Сербия

Post 22-Feb-2015 13:21 (after 1 minute)

[Quote]

9633Ура. Осталось только жапанский выучить. Или Игл-Райдеров смотреть.
Или корейский хардсаб через гугл транслейт прогнать.
[Profile] [PM]

Трамвай-фильм

Gender: Male

Longevity: 4 years 8 months

Posts: 1438

Location: Россия

Post 22-Feb-2015 13:26 (after 4 minutes)

[Quote]

9634
9633Ура. Осталось только жапанский выучить. Или Игл-Райдеров смотреть.
Или корейский хардсаб через гугл транслейт прогнать.
иероглифы хреново переводятся.
[Profile] [PM]

Faer ®

Gender: Male

Longevity: 4 years 3 months

Posts: 342

Location: Сербия

Post 22-Feb-2015 13:46 (after 20 minutes)

[Quote]

Иероглифы хреново переводятся.
nezanna ведь второй сезон с корейского хардсаба переводила?
[Profile] [PM]

Трамвай-фильм

Gender: Male

Longevity: 4 years 8 months

Posts: 1438

Location: Россия

Post 22-Feb-2015 15:27 (after 1 hour 40 minutes)

[Quote]

9637
Иероглифы хреново переводятся.
nezanna ведь второй сезон с корейского хардсаба переводила?
Вы что? он давно на инглише есть. Все серии - откуда она с корейского то переведёт?
Я кстати ща 6ю серии КВ смотрю, это 21 оригинал Гатчаман 2 - ужас! Как они исказили серию
Инглиш субы есть у TSHS, откуда я по вашему 5 серий Гатчаман 2 перевёл на русский, с корейского что ли?
[Profile] [PM]

Faer ®

Gender: Male

Longevity: 4 years 3 months

Posts: 342

Location: Сербия

Post 23-Feb-2015 00:38 (after 9 hours)

[Quote]

Добавлены серии 12-19.
[Profile] [PM]

Faer ®

Gender: Male

Longevity: 4 years 3 months

Posts: 342

Location: Сербия

Post 23-Feb-2015 20:49 (after 20 hours)

[Quote]

Добавлены серии 21-32.
[Profile] [PM]

Faer ®

Gender: Male

Longevity: 4 years 3 months

Posts: 342

Location: Сербия

Post 23-Feb-2015 21:11 (after 22 minutes)

[Quote]

Добавлены серии 34-48. Сезон закрыт.
[Profile] [PM]

Трамвай-фильм

Gender: Male

Longevity: 4 years 8 months

Posts: 1438

Location: Россия

Post 23-Feb-2015 22:52 (after 1 hour 41 minute)

[Quote]

9670Добавлены серии 34-48. Сезон закрыт.
А их разве не 52?
[Profile] [PM]

Faer ®

Gender: Male

Longevity: 4 years 3 months

Posts: 342

Location: Сербия

Post 23-Feb-2015 22:53 (after 1 minute)

[Quote]

9671
9670Добавлены серии 34-48. Сезон закрыт.
А их разве не 52?
http://www.world-art.ru/animation/animation.php?id=3065
52 во втором сезоне.
[Profile] [PM]

Трамвай-фильм

Gender: Male

Longevity: 4 years 8 months

Posts: 1438

Location: Россия

Post 19-Dec-2015 17:10 (after 9 months 23 days)

[Quote]

Похоже все проекты сдулись. Группа "вортекс" развалилась и многие тематические сайты тоже. Первые 7 серий на русском есть только у нас + скоро будет их американская адаптация в КВ. Кхм, раритета, однако
[Profile] [PM]
Display posts:    
Reply to topic

Current time is: 20-Apr 05:54

All times are UTC + 3.5



You cannot post new topics in this forum
You cannot reply to topics in this forum
You cannot edit your posts in this forum
You cannot delete your posts in this forum
You cannot vote in polls in this forum
You cannot attach files in this forum
You can download files in this forum