Zombie Killers: Elephant's Graveyard (Брюс Смит) [2015, США, ужасы, DVDRip] (БП)

Ответить на тему
Статистика раздачи
Размер:  1,04 GB   |    Зарегистрирован:  2 года 7 месяцев   |    Скачан:  0 раз

Полного источника не было: 1 год 11 месяцев

 
   
 
 
 
Автор Сообщение

Faer ®

Пол: Мужской

Стаж: 2 года 8 месяцев

Сообщений: 323

Откуда: Сербия

Создавать темы 14-Фев-2015 05:10

[Цитировать]

Zombie Killers: Elephant's Graveyard
Страна: США
Жанр: ужасы
Год выпуска: 2015
Продолжительность: 01:43:50
Перевод: Отсутствует
Cубтитры: нет
Режиссер: Брюс Смит
В ролях: Миша Бартон, Билли Зейн, Ди Уоллес-Стоун, Фелисса Роуз, Гэбриэлль Стоун, Брайан Галлахер, Брайан Энтони Уилсон, Adam Gingsberg, Эшли Самнер, Джо Раффа
Описание: The rural town of Elwood is a "bubble" against the backdrop of a suspected global infection that appears connected to natural gas fracking. A small band of young adults under the training of ex-military soldier Seiler keeps the town safe while patrolling the fence line that locks the residents inside. There is something wrong with the town, with more dread and fear penned up inside than what awaits on the frontier. Young Ian Sommers realizes he needs to get free, no matter what lies beyond Elwood's fence and tries to convince others to do the same.
Сэмпл: http://multi-up.com/1032840
Качество видео: DVDRip
Формат видео: AVI
Видео: XviD, 720х304, 2.35:1, 23,976fps, 1300 Кбит/с
Аудио: MP3, 48,0 кГц, 128 Кбит/с, стерео

MediaInfo

Общее
Полное имя : F:\Архив\Фильмы\Zombie.Killers.Elephants.Graveyard.avi
Формат : AVI
Формат/Информация : Audio Video Interleave
Размер файла : 1,04 Гбайт
Продолжительность : 1 ч. 43 м.
Общий поток : 1441 Кбит/сек
Видео
Идентификатор : 0
Формат : MPEG-4 Visual
Профиль формата : Simple@L3
Параметр BVOP формата : Нет
Параметр QPel формата : Нет
Параметр GMC формата : Без точки перехода
Параметр матрицы формата : Default (H.263)
Идентификатор кодека : XVID
Идентификатор кодека/Подсказка : XviD
Продолжительность : 1 ч. 43 м.
Битрейт : 1300 Кбит/сек
Ширина : 720 пикселей
Высота : 304 пикселя
Соотношение сторон : 2,35:1
Частота кадров : 23,976 кадра/сек
Цветовое пространство : YUV
Субдискретизация насыщенности : 4:2:0
Битовая глубина : 8 бит
Тип развёртки : Прогрессивная
Метод сжатия : С потерями
Бит/(Пиксели*Кадры) : 0.248
Размер потока : 965 Мбайт (90%)
Библиотека кодирования : XviD 1.1.2 (UTC 2006-11-01)
Аудио
Идентификатор : 1
Формат : MPEG Audio
Версия формата : Version 1
Профиль формата : Layer 3
Режим : Joint stereo
Идентификатор кодека : 55
Идентификатор кодека/Подсказка : MP3
Продолжительность : 1 ч. 43 м.
Продолжительность оригинала : 1 ч. 43 м.
Вид битрейта : Постоянный
Битрейт : 128 Кбит/сек
Каналы : 2 канала
Частота : 48,0 КГц
Метод сжатия : С потерями
Размер потока : 95,1 Мбайт (9%)
Выравнивание : Разделение по промежуткам
Продолжительность промежутка : 24 мс. (0,58 видеокадр)
Библиотека кодирования : LAME3.98

Скриншоты



Zombie.Killers.Elephants.Graveyard.avi.torrent
Торрент: Зарегистрирован [ 2015-02-14 05:10 ]

Скачать .torrent

Скачать

11 KB

Статус: проверено
Скачан: 0 раз
Размер: 1,04 GB
 
[Профиль] [ЛС]

Трамвай-фильм

Пол: Мужской

Стаж: 3 года 1 месяц

Сообщений: 1110

Откуда: Россия

Создавать темы 14-Фев-2015 13:16 (спустя 8 часов)

[Цитировать]

За зомбиков спасибо, но хотелось бы с цензурным переводом.
[Профиль] [ЛС]

Faer ®

Пол: Мужской

Стаж: 2 года 8 месяцев

Сообщений: 323

Откуда: Сербия

Создавать темы 14-Фев-2015 13:44 (спустя 28 минут)

[Цитировать]

9446За зомбиков спасибо, но хотелось бы с цензурным переводом.
Я только в марте смогу проспонсировать. Сейчас денег нема.
[Профиль] [ЛС]

admin

Пол: Мужской

Стаж: 5 лет

Сообщений: 4750

Откуда: Україна

Создавать темы 14-Фев-2015 14:32 (спустя 47 минут)

[Цитировать]

Это уже кошмары, а не фантастика ab
Дену904 напишите. Он любит такие темы.
[Профиль] [ЛС]

Трамвай-фильм

Пол: Мужской

Стаж: 3 года 1 месяц

Сообщений: 1110

Откуда: Россия

Создавать темы 14-Фев-2015 14:48 (спустя 16 минут)

[Цитировать]

9452Это уже кошмары, а не фантастика ab
Дену904 напишите. Он любит такие темы.
Я кстати тоже. Кроме ретро фантастики. люблю кассетные жутики 80-х, в стиле молодежных малобюджетных монстриков и зомби-фильмы.
[Профиль] [ЛС]

$Shorox

Пол: Мужской

Стаж: 4 года 9 месяцев

Сообщений: 1896

Создавать темы 14-Фев-2015 15:08 (спустя 19 минут)

[Цитировать]

Трамвай-фильм,
Ну и отлично. Вы переведёте bv , den904 озвучит. ae
P.S.
Реально, фильмы под названием 2015 спонсировать и не надо. Их и так кто-нибудь переведёт.
[Профиль] [ЛС]

Faer ®

Пол: Мужской

Стаж: 2 года 8 месяцев

Сообщений: 323

Откуда: Сербия

Создавать темы 14-Фев-2015 15:42 (спустя 33 минуты)

[Цитировать]

9452Это уже кошмары, а не фантастика ab
Эт да. В своём разделе буду иногда "непрофильные" раздачи кидать.
Дену904 напишите. Он любит такие темы.
Дену я о другой раздаче напишу.
[Профиль] [ЛС]

Трамвай-фильм

Пол: Мужской

Стаж: 3 года 1 месяц

Сообщений: 1110

Откуда: Россия

Создавать темы 14-Фев-2015 17:41 (спустя 1 час 59 минут)

[Цитировать]

9455Трамвай-фильм,
Реально, фильмы под названием 2015 спонсировать и не надо. Их и так кто-нибудь переведёт.
поэтому я не рыпаюсь.
главное без мата.
[Профиль] [ЛС]
Показать сообщения:    
Ответить на тему

Текущее время: 24-Сен 19:05

Часовой пояс: UTC + 3:30



Вы не можете начинать темы
Вы не можете отвечать на сообщения
Вы не можете редактировать свои сообщения
Вы не можете удалять свои сообщения
Вы не можете голосовать в опросах
Вы не можете прикреплять файлы к сообщениям
Вы можете скачивать файлы