Токсин / Toxin (Джейсон Дудек) [2015, США, ужасы, фантастика, триллер, драма, BDRip-1080p] ЛО (Ворон)

Reply to topic
 
Author Message

Faer ®

Gender: Male

Longevity: 7 years

Posts: 805

Post 14-Feb-2015 04:22

[Quote]

Токсин / Toxin
Страна: США, StudioLine Entertainment
Жанр: ужасы, фантастика, триллер, драма
Год выпуска: 2015
Продолжительность: 01:20:52
Перевод: ЛО (Ворон)
Режиссер: Джейсон Дудек
В ролях: Тейлор Хэндли, Дэнни Гловер, Винни Джонс, Марго Харшман, Беверли Митчелл, К.С. Ли, Тиффани Хайнс, Райан Пинкстон, Либо Фриман, Фиона Хейл
Описание: Фармацевтическая компания нанимает известного ученого для создания вакцины против смертельного вируса. Следы этой заразы приводят в дом бабушки молодого морского пехотинца, куда он отправился с друзьями, чтобы помочь бабушке с переездом. Вот тут и начинаются приключения у веселой компании.
Качество видео: BDRip-1080p
Формат: MKV
Видео: x264, 2500 кбит/с, 1920x1080, 23.976 к/с
Аудио 1: Русский ЛО (Ворон) (AC3, 2 ch, 192 Кбит/с)
Аудио 2: Английский (AC3, 6 ch, 640 Кбит/с)
Работа над релизом:
Видеоряд найден на rarbg2018.org
Синхр. русской дорожки - kosmoaelita



С русским переводом

MediaInfo

Общее
Уникальный идентификатор : 249223030499309276246553699796191852513 (0xBB7E9C1710D48BB885C54443DBD0B7E1)
Полное имя : N:\BD-DISC\Toxin.2015.1080p.BluRay.H264.AAC-RARBG\Toxin 2015.x264.BDRip.1080p.Rus.kosmoaelita.mkv
Формат : Matroska
Версия формата : Version 4
Размер файла : 1,88 Гбайт
Продолжительность : 1 ч. 20 м.
Общий поток : 3329 Кбит/сек
Название фильма : Токсин / Toxin / 2015 / kosmoaelita
Дата кодирования : UTC 2021-11-08 06:45:40
Программа кодирования : mkvmerge v6.6.0 ('The Edge Of The In Between') built on Dec 1 2013 17:55:00
Библиотека кодирования : libebml v1.3.0 + libmatroska v1.4.1
Attachments : poster.jpg
Видео
Идентификатор : 1
Формат : AVC
Формат/Информация : Advanced Video Codec
Профиль формата : High@L4.1
Настройки формата : CABAC / 4 Ref Frames
Параметр CABAC формата : Да
Параметр RefFrames формата : 4 кадра
Идентификатор кодека : V_MPEG4/ISO/AVC
Продолжительность : 1 ч. 20 м.
Битрейт : 2500 Кбит/сек
Ширина : 1920 пикселей
Высота : 1080 пикселей
Соотношение сторон : 16:9
Режим частоты кадров : Постоянный
Частота кадров : 23,976 (23976/1000) кадра/сек
Цветовое пространство : YUV
Субдискретизация насыщенности : 4:2:0
Битовая глубина : 8 бит
Тип развёртки : Прогрессивная
Бит/(Пиксели*Кадры) : 0.050
Размер потока : 1,37 Гбайт (73%)
Заголовок : http://kosmoaelita.com/viewtopic.php?t=1606
Библиотека кодирования : x264 core 152 r2851M ba24899
Настройки программы : cabac=1 / ref=4 / deblock=1:-1:-1 / analyse=0x3:0x113 / me=umh / subme=9 / psy=1 / psy_rd=1.00:0.15 / mixed_ref=1 / me_range=24 / chroma_me=1 / trellis=2 / 8x8dct=1 / cqm=0 / deadzone=21,11 / fast_pskip=1 / chroma_qp_offset=-3 / threads=16 / lookahead_threads=4 / sliced_threads=0 / nr=0 / decimate=1 / interlaced=0 / bluray_compat=0 / constrained_intra=0 / bframes=3 / b_pyramid=2 / b_adapt=2 / b_bias=0 / direct=3 / weightb=1 / open_gop=0 / weightp=2 / keyint=250 / keyint_min=25 / scenecut=40 / intra_refresh=0 / rc_lookahead=50 / rc=2pass / mbtree=1 / bitrate=2500 / ratetol=1.0 / qcomp=0.60 / qpmin=0 / qpmax=69 / qpstep=4 / cplxblur=20.0 / qblur=0.5 / vbv_maxrate=31250 / vbv_bufsize=31250 / nal_hrd=none / filler=0 / ip_ratio=1.40 / aq=3:1.00
Default : Да
Forced : Нет
Аудио #1
Идентификатор : 2
Формат : AC-3
Формат/Информация : Audio Coding 3
Коммерческое название : Dolby Digital
Идентификатор кодека : A_AC3
Продолжительность : 1 ч. 20 м.
Вид битрейта : Постоянный
Битрейт : 192 Кбит/сек
Каналы : 2 канала
ChannelLayout : L R
Частота : 48,0 КГц
Частота кадров : 31,250 кадров/сек (1536 SPF)
Битовая глубина : 16 бит
Метод сжатия : С потерями
Задержка видео : -43 мс.
Размер потока : 111 Мбайт (6%)
Заголовок : Русский ЛО (Ворон)
Язык : Russian
ServiceKind/String : Complete Main
Default : Да
Forced : Нет
Аудио #2
Идентификатор : 3
Формат : AC-3
Формат/Информация : Audio Coding 3
Коммерческое название : Dolby Digital
Идентификатор кодека : A_AC3
Продолжительность : 1 ч. 20 м.
Вид битрейта : Постоянный
Битрейт : 640 Кбит/сек
Каналы : 6 каналов
ChannelLayout : L R C LFE Ls Rs
Частота : 48,0 КГц
Частота кадров : 31,250 кадров/сек (1536 SPF)
Битовая глубина : 16 бит
Метод сжатия : С потерями
Задержка видео : -43 мс.
Размер потока : 370 Мбайт (19%)
Язык : English
ServiceKind/String : Complete Main
Default : Нет
Forced : Нет

Скриншоты

Скринлист

Файл дополнительно залит на ОБЛАКО


Last edited by Faer on 2015-02-14 15:13; edited 1 time in total
[Profile] [PM]

Guest

Gender: Unknown

Post 14-Feb-2015 15:08 (after 10 hours)

[Quote]

Предлагаю перевод описания:
Фармацевтическая компания нанимает известного ученого для помощи в разработке вакцины против смертельного вируса.
 

Faer ®

Gender: Male

Longevity: 7 years

Posts: 805

Post 14-Feb-2015 15:13 (after 4 minutes)

[Quote]

9456Предлагаю перевод описания: [...]
Спасибо.
[Profile] [PM]

kosmoaelita

Gender: Male

Longevity: 9 years 4 months

Posts: 1928

Location: м.Рівне

Post 08-Nov-2021 09:52 (after 6 years 8 months)

[Quote]

Добавлен русский перевод
[Profile] [PM]

bot

Post 08-Nov-2021 09:55 (after 2 minutes)

Топик был перенесен из форума Фант. фильмы без перевода в форум 2015
kosmoaelita
 
Display posts:    
Reply to topic

Current time is: 22-Jan 05:35

All times are UTC + 3



You cannot post new topics in this forum
You cannot reply to topics in this forum
You cannot edit your posts in this forum
You cannot delete your posts in this forum
You cannot vote in polls in this forum
You cannot attach files in this forum
You cannot download files in this forum