Токсин / Toxin (Джейсон Дудек) [2015, США, ужасы, фантастика, триллер, драма, DVDRip] (БП)

Reply to topic
DL-List and Torrent activity
Size:  1.26 GB   |    Registered:  4 years 5 months   |    Completed:  1 time

Seeder not seen: 3 years 8 months

 
   
 
 
 
Author Message

Faer ®

Gender: Male

Longevity: 4 years 6 months

Posts: 344

Location: Сербия

Post 14-Feb-2015 04:22

[Quote]

Токсин / Toxin
Страна: США
Жанр: ужасы, фантастика, триллер, драма
Год выпуска: 2015
Продолжительность: 01:20:41
Перевод: Отсутствует
Cубтитры: нет
Режиссер: Джейсон Дудек
В ролях: Тейлор Хэндли, Дэнни Гловер, Винни Джонс, Марго Харшман, Беверли Митчелл, К.С. Ли, Тиффани Хайнс, Райан Пинкстон, Либо Фриман, Фиона Хейл
Описание: Фармацевтическая компания нанимает известного ученого для помощи в разработке вакцины против смертельного вируса. (с) k-center
Сэмпл: http://multi-up.com/1032839
Качество видео: DVDRip
Формат видео: AVI
Видео: XviD, 720х400, 16:9, 23,976fps, 1849 Кбит/с
Аудио: АС3, 48,0 кГц, 284 Кбит/с, 6 каналов

MediaInfo

Общее
Полное имя : C:\Users\Faer\Desktop\Toxin 2015 DVDrip XVID AC3 ACAB\Toxin 2015 DVDrip XVID AC3 ACAB.avi
Формат : AVI
Формат/Информация : Audio Video Interleave
Размер файла : 1,26 Гбайт
Продолжительность : 1 ч. 20 м.
Общий поток : 2242 Кбит/сек
Библиотека кодирования : VirtualDub build 30091/release
Видео
Идентификатор : 0
Формат : MPEG-4 Visual
Профиль формата : Advanced Simple@L5
Параметр BVOP формата : 2
Параметр QPel формата : Нет
Параметр GMC формата : Без точки перехода
Параметр матрицы формата : Default (H.263)
Идентификатор кодека : XVID
Идентификатор кодека/Подсказка : XviD
Продолжительность : 1 ч. 20 м.
Битрейт : 1849 Кбит/сек
Ширина : 720 пикселей
Высота : 400 пикселей
Соотношение сторон : 16:9
Частота кадров : 23,976 кадра/сек
Цветовое пространство : YUV
Субдискретизация насыщенности : 4:2:0
Битовая глубина : 8 бит
Тип развёртки : Прогрессивная
Метод сжатия : С потерями
Бит/(Пиксели*Кадры) : 0.268
Размер потока : 1,04 Гбайт (82%)
Библиотека кодирования : XviD 1.2.1 (UTC 2008-12-04)
Аудио
Идентификатор : 1
Формат : AC-3
Формат/Информация : Audio Coding 3
Расширение режима : CM (complete main)
Параметр Endianness формата : Big
Идентификатор кодека : 2000
Продолжительность : 1 ч. 20 м.
Вид битрейта : Постоянный
Битрейт : 384 Кбит/сек
Каналы : 6 каналов
Расположение каналов : Front: L C R, Side: L R, LFE
Частота : 48,0 КГц
Битовая глубина : 16 бит
Метод сжатия : С потерями
Размер потока : 222 Мбайт (17%)
Выравнивание : Соединение по промежуткам
Продолжительность промежутка : 42 мс. (1,00 видеокадр)
Время предзагрузки промежутка : 512 мс.

Скриншоты




Toxin 2015 DVDrip XVID AC3 ACAB.avi.torrent
Torrent: Registered [ 2015-02-14 04:22 ]

Download .torrent

Download

13 KB

Status: checked
Completed: 1 times
Size: 1.26 GB
 


Last edited by Faer on 2015-02-14 15:13; edited 1 time in total
[Profile] [PM]

Guest

Gender: Unknown

Post 14-Feb-2015 15:08 (after 10 hours)

[Quote]

Предлагаю перевод описания:
Фармацевтическая компания нанимает известного ученого для помощи в разработке вакцины против смертельного вируса.
 

Faer ®

Gender: Male

Longevity: 4 years 6 months

Posts: 344

Location: Сербия

Post 14-Feb-2015 15:13 (after 4 minutes)

[Quote]

9456Предлагаю перевод описания: [...]
Спасибо.
[Profile] [PM]

Трамвай-фильм

Gender: Male

Longevity: 4 years 11 months

Posts: 1466

Location: Россия

Post 18-Jun-2017 19:26 (after 2 years 4 months)

[Quote]

да вроде как давно фильм переведен
[Profile] [PM]
Display posts:    
Reply to topic

Current time is: 18-Jul 16:26

All times are UTC + 3



You cannot post new topics in this forum
You cannot reply to topics in this forum
You cannot edit your posts in this forum
You cannot delete your posts in this forum
You cannot vote in polls in this forum
You cannot attach files in this forum
You can download files in this forum