Восхождение Юпитер / Jupiter Ascending (Энди Вачовски, Лана Вачовски) [2015, США, фантастика, CamRip] (ДБ)

Reply to topic
DL-List and Torrent activity
Size:  751 MB   |    Registered:  5 years 8 months   |    Completed:  1 time

Seeder not seen: 4 years 11 months

 
   
 
 
 
Author Message

Faer ®

Gender: Male

Longevity: 5 years 9 months

Posts: 467

Post 11-Feb-2015 07:24

[Quote]

Восхождение Юпитер / Jupiter Ascending
Страна: США
Жанр: фантастика
Год выпуска: 2015
Продолжительность: 01:58:05
Перевод: Профессиональный (дублированный)
Cубтитры: нет
Режиссер: Энди Вачовски, Лана Вачовски
В ролях: Мила Кунис, Ченнинг Татум, Дуглас Бут, Шон Бин, Эдди Редмэйн, Джеймс Д’Арси, Терри Гиллиам, Ванесса Кирби, Мария Дойл Кеннеди, Пэ Ду На
Описание: Юпитер Джонс родилась под ночным небом - и все знаки предсказывали, что девочке предстоят великие свершения. Юпитер выросла и каждый день видит во сне звезды, но просыпается в жесткой реальности, где она работает уборщицей и моет туалеты. Личная жизнь Юпитер тоже оставляет желать лучшего, пока девушка не встречает Кейна. Кейн, бывший военный охотник, прибывает на Землю, чтобы отыскать Юпитер и раскрыть девушке ее истинное предназначение. Благодаря своим генетическим особенностям Юпитер становится претенденткой невероятного наследия, способного изменить равновесие во Вселенной...
Сэмпл: http://multi-up.com/1032254
Качество видео: CamRip
Формат видео: AVI
Видео: XviD, 640х288, 2.222:1, 29.970fps, 749 Кбит/с
Аудио: MP3, 48.0кГц, 128 Кбит/с, стерео


Русский трейлер:

MediaInfo

General
Complete name : Voshozhdenie.Jupiter.2014.D.CAMRip.700MB.avi
Format : AVI
Format/Info : Audio Video Interleave
File size : 751 MiB
Duration : 1h 58mn
Overall bit rate : 889 Kbps
Movie name : Voshozhdenie.Jupiter.2014.D.CAMRip.700MB.
Writing application : VirtualDubMod 1.5.10.3 | (build 2550/release)
Writing library : VirtualDub build 35491/release
Video
ID : 0
Format : MPEG-4 Visual
Format profile : Advanced Simple@L5
Format settings, BVOP : 2
Format settings, QPel : No
Format settings, GMC : No warppoints
Format settings, Matrix : Default (H.263)
Muxing mode : Packed bitstream
Codec ID : XVID
Codec ID/Hint : XviD
Duration : 1h 58mn
Bit rate : 749 Kbps
Width : 640 pixels
Height : 288 pixels
Display aspect ratio : 2.222
Frame rate : 29.970 fps
Color space : YUV
Chroma subsampling : 4:2:0
Bit depth : 8 bits
Scan type : Progressive
Compression mode : Lossy
Bits/(Pixel*Frame) : 0.136
Stream size : 633 MiB (84%)
Writing library : XviD 64
Audio
ID : 1
Format : MPEG Audio
Format version : Version 1
Format profile : Layer 3
Mode : Joint stereo
Mode extension : MS Stereo
Codec ID : 55
Codec ID/Hint : MP3
Duration : 1h 58mn
Bit rate mode : Constant
Bit rate : 128 Kbps
Channel(s) : 2 channels
Sampling rate : 48.0 KHz
Compression mode : Lossy
Stream size : 108 MiB (14%)
Alignment : Split accross interleaves
Interleave, duration : 33 ms (1.00 video frame)
Interleave, preload duration : 500 ms

Скриншоты



Voshozhdenie.Jupiter.avi.torrent
 GOLD TORRENT! DOWNLOAD TRAFFIC DOES NOT CONSIDER! 
Torrent: Registered [ 2015-02-11 07:24 ]

Download .torrent

Download

15 KB

Status: checked
Completed: 1 times
Size: 751 MB
 
[Profile] [PM]

Faer ®

Gender: Male

Longevity: 5 years 9 months

Posts: 467

Post 11-Feb-2015 07:27 (after 3 minutes)

[Quote]

Раздача будет обновляться, по мере выпуска более качественных версий.
Режиссер: Энди Вачовски, Лана Вачовски
Вачовски уже не те.
[Profile] [PM]

Трамвай-фильм

Gender: Male

Longevity: 6 years 2 months

Posts: 1867

Location: Россия

Post 17-Apr-2016 12:38 (after 1 year 2 months)

[Quote]

9338Раздача будет обновляться, по мере выпуска более качественных версий.
Режиссер: Энди Вачовски, Лана Вачовски
Вачовски уже не те.
Теперь уже оба стали бабами. С поддержкой своих жён!
[Profile] [PM]
Display posts:    
Reply to topic

Current time is: 20-Oct 08:16

All times are UTC + 3



You cannot post new topics in this forum
You cannot reply to topics in this forum
You cannot edit your posts in this forum
You cannot delete your posts in this forum
You cannot vote in polls in this forum
You cannot attach files in this forum
You can download files in this forum