Камен Райдер Стронгер / Kamen Rider Stronger / Kamen Raidâ Sutorongâ / Сезон: 5 / Серии: 1-39 из 39 (Даизуке Ямадзаки) [1975, фантастика, фильм действия, боевик, DVDRip] (Sub: FRT Sora) (Sub rus) (Original)

Reply to topic
 
Author Message

Faer ®

Gender: Male

Longevity: 7 years 4 months

Posts: 870

Post 10-Feb-2015 23:13

[Quote]

Камен Райдер Стронгер / Kamen Rider Stronger / Kamen Raidâ Sutorongâ
Год выпуска: 1975
Страна: Япония
Жанр: фантастика, фильм действия, боевик
Продолжительность: 00:24:00
Перевод: субтитры (FRT Sora)
Режиссёр: Даизуке Ямадзаки
В ролях: Хироши Мияути, Хироси Фудзиока, Рё Хаями, Тору Окадзаки, Такеши Сасаки, Акира Ямагути, Шигеру Араки, Кёко Окада, Акидзи Кобаяси, Хироси Огасавара
Описание: Япония, 1975-й год. Великий лидер зла, ещё в начале 70-х годов, засекретил одну из групп своих последователей даже от остальных сторонников зла. Эта замаскированная группа называлась «Чёрный Сатана» и должна была стать «резервом» на случай уничтожения всех других группировок. Ввиду того, что так и случилось (все прочие группировки были выбиты Камен Райдерами), «Чёрный Сатана» начал действовать, пользуясь тем, что все Наездники в маске покинули Японию, уехав сражаться со злом в другие страны мира.


Ссылка на предыдущие и альтернативные раздачи:
http://kosmoaelita.com/viewtopic.php?t=1587 - первый сезон
http://kosmoaelita.com/viewtopic.php?t=1546 - развитие истории сериала
http://kosmoaelita.com/viewtopic.php?t=1549 - развитие вселенной сериала
Качество: DVDRip
Формат: MKV
Видео кодек: H263
Аудио кодек: MP3
Видео: H263, 640х480, 4:3, 23.976fps, 1765 Кбит/с
Аудио: MP3, 48.0мГц, 128 Кбит/с, стерео

MediaInfo

Общее
Уникальный идентификатор : 203478324869916436769899386804042513652 (0x99147FF8CBB97185A8B0D60A1284BCF4)
Полное имя : Kamen Rider Stronger 04.mkv
Формат : Matroska
Версия формата : Version 4 / Version 2
Размер файла : 348 Мбайт
Продолжительность : 25 м.
Режим общего битрейта : Переменный
Общий поток : 1924 Кбит/сек
Дата кодирования : UTC 2015-02-10 19:48:23
Программа кодирования : mkvmerge v6.8.0 ('Theme for Great Cities') 32bit built on Mar 2 2014 21:27:07
Библиотека кодирования : libebml v1.3.0 + libmatroska v1.4.1
Видео
Идентификатор : 1
Формат : MPEG-4 Visual
Параметр BVOP формата : 1
Параметр QPel формата : Нет
Параметр GMC формата : Без точки перехода
Параметр матрицы формата : Default (H.263)
Режим смешивания : Сжатый битовый поток
Идентификатор кодека : V_MS/VFW/FOURCC / DX50
Идентификатор кодека/Подсказка : DivX 5
Продолжительность : 25 м.
Битрейт : 1761 Кбит/сек
Ширина : 640 пикселей
Высота : 480 пикселей
Соотношение сторон : 4:3
Режим частоты кадров : Постоянный
Частота кадров : 23,976 кадра/сек
Цветовое пространство : YUV
Субдискретизация насыщенности : 4:2:0
Битовая глубина : 8 бит
Тип развёртки : Прогрессивная
Метод сжатия : С потерями
Бит/(Пиксели*Кадры) : 0.239
Размер потока : 319 Мбайт (92%)
Библиотека кодирования : DivX 5.2.1 (WaffleDay) (UTC 2004-09-08)
Default : Да
Forced : Нет
Аудио
Идентификатор : 2
Формат : MPEG Audio
Версия формата : Version 1
Профиль формата : Layer 3
Режим : Joint stereo
Идентификатор кодека : A_MPEG/L3
Идентификатор кодека/Подсказка : MP3
Продолжительность : 25 м.
Вид битрейта : Переменный
Битрейт : 125 Кбит/сек
Номинальный битрейт : 160 Кбит/сек
Каналы : 2 канала
Частота : 48,0 КГц
Метод сжатия : С потерями
Размер потока : 22,6 Мбайт (7%)
Библиотека кодирования : LAME3.97b
Настройки программы : -m j -V 4 -q 2 -lowpass 17.5 --abr 160
Default : Да
Forced : Нет
Текст
Идентификатор : 3
Формат : UTF-8
Идентификатор кодека : S_TEXT/UTF8
Идентификатор кодека/Информация : UTF-8 Plain Text
Язык : Russian
Default : Да
Forced : Нет

Скриншоты




cd Рип дополнительно залит на облако cd2 cd Рип с русским хардсабом cd2


Last edited by Faer on 2021-03-08 01:49; edited 6 times in total
[Profile] [PM]

Трамвай-фильм

Gender: Male

Longevity: 7 years 9 months

Posts: 1818

Location: Россия

Post 10-Feb-2015 23:40 (after 27 minutes)

[Quote]

чем дальше - тем комичней
[Profile] [PM]

Faer ®

Gender: Male

Longevity: 7 years 4 months

Posts: 870

Post 10-Feb-2015 23:45 (after 4 minutes)

[Quote]

9326чем дальше - тем комичней
Это да. Стронгер самоуверенный, и немного "не от мира сего". Всегда старается показать своё бесстрашие и превосходство. Актёрские жесты, типа резко отброшенного в сторону плаща - его обычное поведение. И это первый Райдер, имеющий девушку-помощника Райдера (после отрицательных отзывов, в следующих сезонах от помощника отказались).
Ну так и напрашивается, Что буква S на груди - намёк на Супермена. И не только на костюме, но и на желтой рубашке со 2 скрина. Он довольно часто его демонстрирует.
[Profile] [PM]

Трамвай-фильм

Gender: Male

Longevity: 7 years 9 months

Posts: 1818

Location: Россия

Post 11-Feb-2015 20:07 (after 20 hours)

[Quote]

ну руками еще Павер рейнджеры махали. У японцев вообще стиль махать.
[Profile] [PM]

Faer ®

Gender: Male

Longevity: 7 years 4 months

Posts: 870

Post 15-Sep-2020 17:34 (after 5 years 7 months)

[Quote]

Раздача обновлена, добавлены все серии, скачивать только с облака.


Last edited by Faer on 2020-09-16 06:02; edited 1 time in total
[Profile] [PM]

Starlay

Gender: Male

Longevity: 2 years 5 months

Posts: 253

Post 15-Sep-2020 18:02 (after 27 minutes)

[Quote]

Отлично, спасибо.
[Profile] [PM]

Faer ®

Gender: Male

Longevity: 7 years 4 months

Posts: 870

Post 07-Mar-2021 16:25 (after 5 months 21 day)

[Quote]

Добавлена альтернативная версия перевода от FSG DRAGONFOX, с русским хардсабом.
[Profile] [PM]

CROMAG

Gender: Male

Longevity: 6 years 8 months

Posts: 3643

Location: Прибалтика

Post 07-Mar-2021 17:26 (after 1 hour 1 minute)

[Quote]

Faer, Как понять альтернативная ???
[Profile] [PM]

Starlay

Gender: Male

Longevity: 2 years 5 months

Posts: 253

Post 07-Mar-2021 17:52 (after 26 minutes)

[Quote]

Как понять альтернативная ???
Та, которая не альтернативная, с английскими сабами.
[Profile] [PM]

Faer ®

Gender: Male

Longevity: 7 years 4 months

Posts: 870

Post 07-Mar-2021 20:55 (after 3 hours)

[Quote]

29178Faer, Как понять альтернативная ???
Переводы от двух разных команд.
И первый перевод - софтсаб, второй - хардсаб.
[Profile] [PM]

Starlay

Gender: Male

Longevity: 2 years 5 months

Posts: 253

Post 07-Mar-2021 22:13 (after 1 hour 17 minutes)

[Quote]

И первый перевод - софтсаб
Да, но там перевод только на английский. Имею в виду первую раздачу на облаке от сентября 2020 г., где файлы mkv. На русский нет перевода, субтитры (софтсаб, srt) - только английские. Так и должно быть? А второй релиз, который на Яндекс-диск сегодня 07.03. или вчера залит, в нём файлы mp4 с переводом на русский, субтитры - хардсаб.
[Profile] [PM]

Faer ®

Gender: Male

Longevity: 7 years 4 months

Posts: 870

Post 08-Mar-2021 01:49 (after 3 hours)

[Quote]

29182
И первый перевод - софтсаб
Да, но там перевод только на английский. Имею в виду первую раздачу на облаке от сентября 2020 г., где файлы mkv. На русский нет перевода, субтитры (софтсаб, srt) - только английские. Так и должно быть? А второй релиз, который на Яндекс-диск сегодня 07.03. или вчера залит, в нём файлы mp4 с переводом на русский, субтитры - хардсаб.
Значит это я накосячил.
Пофиксил первую ссылку.
Вчера слили фотку со съёмок чего-то, где опять есть солдаты Шокера. Возможно, новый сезон Райдера скоро анонсируют.
[Profile] [PM]
Display posts:    
Reply to topic

Current time is: 28-May 03:58

All times are UTC + 3



You cannot post new topics in this forum
You cannot reply to topics in this forum
You cannot edit your posts in this forum
You cannot delete your posts in this forum
You cannot vote in polls in this forum
You cannot attach files in this forum
You cannot download files in this forum