Ганц / Gantz (Синсуке Сато) [2010, Япония, фантастика, боевик, BDRip-720p] (ЛД : AnsverITO, Trina_D)

Reply to topic
 
Author Message

Faer ®

Gender: Male

Longevity: 4 years 4 months

Posts: 344

Location: Сербия

Post 07-Feb-2015 17:30

[Quote]

Ганц / Gantz
Страна: Япония
Жанр: фантастика, боевик
Год выпуска: 2010
Продолжительность: 02:10:48
Перевод: Любительский (двухголосый) _ AnsverITO, Trina_D (Dora Sinema)
Cубтитры: нет
Режиссер: Синсуке Сато
В ролях: Кадзунари Ниномия, Мацуяма Кэнити, Юрико Ёситака, Каната Хонго, Нацуна Ватанабэ, Томорово Тагути, Такаюки Ямада, Кенсуке Тисака, Юко Генкаку, Мукау Накамура
Описание: Темнота. Ты умер, и ты воскрес в странной комнате, где есть черный глянцевый шар и множество других людей, умерших, как и ты, совсем недавно. И тут возникает очень правильный вопрос — что происходит? Вряд ли это имеет какое-либо отношение к религии, это не ад, не чистилище и вот уж точно не рай. Обычная комната в отеле с обшарпанными стенами и приятным видом на Токио из окна. Обычная комната, не считая того, что единственная мебель в ней — это огромный черный шар. Но это мелочь по сравнению с тем, что хотя твои пальцы проходят сквозь ручку двери, ты не можешь её открыть. Нет, ты не призрак, твое сердце бьется, ты дышишь и даже очень неплохо себя чувствуешь для человека, которого пару минут назад сбил поезд. Что же ждет тебя дальше?
Качество видео: BDRip-720p
Формат видео: MKV
Видео: AVC, 1290х720, 16:9, 23.976fps, 3891 Кбит/с
Аудио: АС3, 48.0кГц, 448 Кбит/с, 6 каналов (русский, Dora Sinema)
Аудио 2: АС3, 48.0кГц, 448 Кбит/с, 6 каналов (английский)

MediaInfo

Общее
Уникальный идентификатор : 172865530933957745989113138692065198643 (0x820CB0B36CD785C5A7CDF8BBF0DA0233)
Полное имя : Gantz.mkv
Формат : Matroska
Версия формата : Version 2
Размер файла : 4,46 Гбайт
Продолжительность : 2 ч. 10 м.
Общий поток : 4885 Кбит/сек
Дата кодирования : UTC 2011-03-26 10:59:57
Программа кодирования : mkvmerge v2.9.7 ('Tenderness') built on Jul 1 2009 18:43:35
Библиотека кодирования : libebml v0.7.7 + libmatroska v0.8.1
Видео
Идентификатор : 1
Формат : AVC
Формат/Информация : Advanced Video Codec
Профиль формата : High@L3.1
Параметр CABAC формата : Да
Параметр ReFrames формата : 5 кадров
Идентификатор кодека : V_MPEG4/ISO/AVC
Продолжительность : 2 ч. 10 м.
Битрейт : 3891 Кбит/сек
Ширина : 1280 пикселей
Высота : 720 пикселей
Соотношение сторон : 16:9
Режим частоты кадров : Постоянный
Частота кадров : 23,976 кадра/сек
Цветовое пространство : YUV
Субдискретизация насыщенности : 4:2:0
Битовая глубина : 8 бит
Тип развёртки : Прогрессивная
Бит/(Пиксели*Кадры) : 0.176
Размер потока : 3,56 Гбайт (80%)
Заголовок : anidub.com
Язык : English
Default : Да
Forced : Нет
Аудио #1
Идентификатор : 2
Формат : AC-3
Формат/Информация : Audio Coding 3
Расширение режима : ME (music and effects)
Параметр Endianness формата : Big
Идентификатор кодека : A_AC3
Продолжительность : 2 ч. 10 м.
Вид битрейта : Постоянный
Битрейт : 448 Кбит/сек
Каналы : 6 каналов
Расположение каналов : Front: L C R, Side: L R, LFE
Частота : 48,0 КГц
Битовая глубина : 16 бит
Метод сжатия : С потерями
Размер потока : 419 Мбайт (9%)
Заголовок : DoraCinema
Язык : Russian
Default : Да
Forced : Нет
Аудио #2
Идентификатор : 3
Формат : AC-3
Формат/Информация : Audio Coding 3
Расширение режима : CM (complete main)
Параметр Endianness формата : Big
Идентификатор кодека : A_AC3
Продолжительность : 2 ч. 10 м.
Вид битрейта : Постоянный
Битрейт : 448 Кбит/сек
Каналы : 6 каналов
Расположение каналов : Front: L C R, Side: L R, LFE
Частота : 48,0 КГц
Битовая глубина : 16 бит
Метод сжатия : С потерями
Размер потока : 419 Мбайт (9%)
Язык : English
Default : Нет
Forced : Нет

Скриншоты




[Profile] [PM]
Display posts:    
Reply to topic

Current time is: 26-May 22:43

All times are UTC + 3



You cannot post new topics in this forum
You cannot reply to topics in this forum
You cannot edit your posts in this forum
You cannot delete your posts in this forum
You cannot vote in polls in this forum
You cannot attach files in this forum
You cannot download files in this forum