Сталкер (Андрей Тарковский) [1979, СССР, фантастика, драма, DVDRip]

Reply to topic
 
Author Message

Faer ®

Gender: Male

Longevity: 5 years 6 months

Posts: 432

Post 05-Feb-2015 07:33

[Quote]

Сталкер
Страна: СССР
Жанр: фантастика, драма
Год выпуска: 1979
Продолжительность: 02:34:56
Перевод: Не требуется
Режиссер: Андрей Тарковский
В ролях: Александр Кайдановский, Анатолий Солоницын, Николай Гринько, Алиса Фрейндлих, Файме Юрна, Наташа Абрамова
Описание: Примерно лет двадцать тому назад в Зоне упал метеорит, спалив дотла поселок. Потом стали пропадать люди. Послали туда танки, солдат, но все сгинули. Место было окружено и взято под строгую вооруженную охрану. Вскоре поползли слухи, что в Зоне есть место, в котором исполняются желания, "самые заветные, самые искренние, самые выстраданные".
С тех пор Зона стала тянуть к себе людей, и появились проводники — сталкеры. Герой этого фильма — только что вышедший из тюрьмы сталкер. Для него, что воля, что тюрьма — все одно, он ведет в Зону "туристов". Для него, "блаженного", счастье в том, чтобы сопровождать туда несчастных, сам он, как и все сталкеры, в комнату счастья не заходит, хотя живет с женой в бедности и дочь у него мутантка.
Клиентами становятся Профессор и некий известный Писатель, переживающий кризис творческий и средних лет одновременно. Профессор нес с собой в комнату счастья бомбу в 20 килотонн, чтобы плохие люди не могли ей воспользоваться для переустройства мироздания. Писатель шел с целым комплексом противоречивых чувств, страстей, сомнений, а по пути они вели колючие разговоры, которые и составляют смысл этой гениальной философской картины.

Качество видео: DVDRip
Формат видео: AVI
Видео: DivX5, 640х480, 4:3, 25fps, 1043 Кбит/с
Аудио: MP3, 32,0 кГц, 96 Кбит/с, стерео

MediaInfo

Общее
Полное имя : Stalker.avi
Формат : AVI
Формат/Информация : Audio Video Interleave
Размер файла : 1,24 Гбайт
Продолжительность : 2 ч. 34 м.
Общий поток : 1149 Кбит/сек
Название фильма : Сталкер
Тема : диск 1
Программа кодирования : VirtualDubModRus 1.5.10.2 (build 2540/release)
Библиотека кодирования : VirtualDubMod build 2540/release
Видео
Идентификатор : 0
Формат : MPEG-4 Visual
Параметр BVOP формата : 1
Параметр QPel формата : Нет
Параметр GMC формата : Без точки перехода
Параметр матрицы формата : Default (H.263)
Режим смешивания : Сжатый битовый поток
Идентификатор кодека : DX50
Идентификатор кодека/Подсказка : DivX 5
Продолжительность : 2 ч. 34 м.
Битрейт : 1043 Кбит/сек
Ширина : 640 пикселей
Высота : 480 пикселей
Соотношение сторон : 4:3
Частота кадров : 25,000 кадров/сек
Цветовое пространство : YUV
Субдискретизация насыщенности : 4:2:0
Битовая глубина : 8 бит
Тип развёртки : Прогрессивная
Метод сжатия : С потерями
Бит/(Пиксели*Кадры) : 0.136
Размер потока : 1,13 Гбайт (91%)
Библиотека кодирования : DivX 5.2.1 (WaffleDay) (UTC 2004-09-08)
Аудио
Идентификатор : 1
Формат : MPEG Audio
Версия формата : Version 1
Профиль формата : Layer 3
Режим : Joint stereo
Расширение режима : MS Stereo
Идентификатор кодека : 55
Идентификатор кодека/Подсказка : MP3
Продолжительность : 2 ч. 34 м.
Вид битрейта : Постоянный
Битрейт : 96,0 Кбит/сек
Каналы : 2 канала
Частота : 32,0 КГц
Метод сжатия : С потерями
Задержка видео : 540 мс.
Размер потока : 106 Мбайт (8%)
Выравнивание : Разделение по промежуткам
Продолжительность промежутка : 40 мс. (1,00 видеокадр)
Время предзагрузки промежутка : 504 мс.
Библиотека кодирования : LAME3.97b
Настройки программы : -m j -V 4 -q 2 -lowpass 15.1 -b 96
Язык : Не определен / Russian

Скриншоты




[Profile] [PM]
Display posts:    
Reply to topic

Current time is: 15-Jul 19:47

All times are UTC + 3



You cannot post new topics in this forum
You cannot reply to topics in this forum
You cannot edit your posts in this forum
You cannot delete your posts in this forum
You cannot vote in polls in this forum
You cannot attach files in this forum
You cannot download files in this forum