Algol - Tragödie der Macht (Hans Werckmeister) [1920, Германия, фантастика, фэнтези, TVRip] (БП)

Reply to topic
DL-List and Torrent activity
Size:  384 MB   |    Registered:  4 years 4 months   |    Completed:  6 times

Seeder not seen: 2 years 10 months

 
   
 
 
 
Author Message

Faer ®

Gender: Male

Longevity: 4 years 5 months

Posts: 344

Location: Сербия

Post 04-Feb-2015 03:52

[Quote]

Algol - Tragödie der Macht
Страна: Германия
Жанр: фантастика, фэнтези
Год выпуска: 1920
Продолжительность: 01:51:45
Перевод: Отсутствует
Cубтитры: нет
Режиссер: Hans Werckmeister
В ролях: Эмиль Яннингс, Йон Готтовт, Ганс Адалберт Шлеттов, Ханна Ральф, Эрна Морена, Эрнст Хофманн, Гертруде Велькер, Кэте Хаак, Себастьян Дроште
Описание: Пришелец с планеты Алгол передает человеку некое устройство, которое делает его суперменом.
Качество видео: TVRip
Формат видео: MP4
Видео: AVC, 640х360, 16:9, 29,970fps, 382 Кбит/с
Аудио: нет

MediaInfo

Общее
Полное имя : Algol.mp4
Формат : MPEG-4
Профиль формата : Base Media / Version 2
Идентификатор кодека : mp42
Размер файла : 384 Мбайт
Продолжительность : 1 ч. 51 м.
Режим общего битрейта : Переменный
Общий поток : 481 Кбит/сек
Дата кодирования : UTC 2014-12-13 03:46:07
Дата пометки : UTC 2014-12-13 03:46:07
gsst : 0
gstd : 6705713
gssd : B4A7DDAC3HH1423009826750820
gshh : r3---sn-4g57kuek.googlevideo.com
Видео
Идентификатор : 1
Формат : AVC
Формат/Информация : Advanced Video Codec
Профиль формата : Baseline@L3.0
Параметр CABAC формата : Нет
Параметр ReFrames формата : 1 кадр
Идентификатор кодека : avc1
Идентификатор кодека/Информация : Advanced Video Coding
Продолжительность : 1 ч. 51 м.
Битрейт : 382 Кбит/сек
Максимальный битрейт : 1196 Кбит/сек
Ширина : 640 пикселей
Высота : 360 пикселей
Соотношение сторон : 16:9
Режим частоты кадров : Постоянный
Частота кадров : 29,970 кадров/сек
Цветовое пространство : YUV
Субдискретизация насыщенности : 4:2:0
Битовая глубина : 8 бит
Тип развёртки : Прогрессивная
Бит/(Пиксели*Кадры) : 0.055
Размер потока : 306 Мбайт (80%)
Дата пометки : UTC 2014-12-13 03:56:18
Аудио
Идентификатор : 2
Формат : AAC
Формат/Информация : Advanced Audio Codec
Профиль формата : LC
Идентификатор кодека : 40
Продолжительность : 1 ч. 51 м.
Вид битрейта : Переменный
Битрейт : 96,0 Кбит/сек
Максимальный битрейт : 103 Кбит/сек
Каналы : 2 канала
Расположение каналов : Front: L R
Частота : 44,1 КГц
Метод сжатия : С потерями
Размер потока : 76,7 Мбайт (20%)
Заголовок : IsoMedia File Produced by Google, 5-11-2011
Дата кодирования : UTC 2014-12-13 03:53:53
Дата пометки : UTC 2014-12-13 03:56:18

Скриншот c названием фильма

Скриншоты



Algol.mp4.torrent
Torrent: Registered [ 2015-02-04 03:52 ]

Download .torrent

Download

15 KB

Status: checked
Completed: 6 times
Size: 384 MB
 


Last edited by Faer on 2015-02-04 19:02; edited 1 time in total
[Profile] [PM]

k-center

Gender: Male

Longevity: 6 years

Posts: 181

Location: Украина

Post 04-Feb-2015 18:58 (after 15 hours)

[Quote]

Предлагаю перевод описания:
Пришелец с планеты Алгол передает человеку некое устройство, которое делает его суперменом.
[Profile] [PM]

Faer ®

Gender: Male

Longevity: 4 years 5 months

Posts: 344

Location: Сербия

Post 04-Feb-2015 19:03 (after 4 minutes)

[Quote]

9213Предлагаю перевод описания: [...].
Спасибо.
[Profile] [PM]

k-center

Gender: Male

Longevity: 6 years

Posts: 181

Location: Украина

Post 04-Feb-2015 19:07 (after 3 minutes)

[Quote]

Не за что. Это после трудового дня просто удовольствие для души.
[Profile] [PM]
Display posts:    
Reply to topic

Current time is: 17-Jun 23:47

All times are UTC + 3



You cannot post new topics in this forum
You cannot reply to topics in this forum
You cannot edit your posts in this forum
You cannot delete your posts in this forum
You cannot vote in polls in this forum
You cannot attach files in this forum
You can download files in this forum