Изгнанник / Выброс / Ejecta (Чад Арчибальд, Мэтт Уиэл) [2014, Канада, фантастика, WEBRip-720p] ЛО (ХихиДок)

Reply to topic
DL-List and Torrent activity
Size:  1.23 GB   |    Registered:  1 month 1 day   |    Completed:  4 times

Seeder not seen: 15 hours

 
   
 
 
 
Author Message

Faer ®

Gender: Male

Longevity: 6 years 11 months

Posts: 751

Post 03-Feb-2015 13:42

[Quote]

Изгнанник / Выброс / Ejecta
Страна: Канада, Foresight Features
Жанр: фантастика
Год выпуска: 2014
Продолжительность: 01:22:12
Перевод: ЛО (ХихиДок)
Режиссер: Чад Арчибальд, Мэтт Уиэл
В ролях: Джулиан Ричингс, Лиза Хоул, Адам Сейболд, Марк Гибсон, Justin Darmanin, Райан Баррет, Эри Миллен, Cat Hostick, Тони Бёрджесс, Ди Уоллес-Стоун
Описание: #1 История одной ночи на земле, которая изменила все, что мы знаем о Вселенной. Упавший инопланетный корабль заставляет правительственных агентов пойти на все, чтоб узнать у свидетелей подробности их контакта с пришельцами.
#2 ИЗГНАННИК - это история о двух людях, которые стали свидетелями необъяснимого атмосферного явления накануне грандиозной солнечной бури и теперь должны выжить, поскольку их преследует устрашающий живой организм. Безымянная группа людей не остановится ни перед чем, чтобы раскопать правду о том, что же случилось с людьми той ночью и доказать миру, что мы не одни во вселенной.

Качество видео: WEBRip-720p
Формат: MKV
Видео: x264, 1716 кбит/с, 1280x640, 23.976 к/с
Аудио 1: Русский ЛО (ХихиДок) (AC3, 2 ch, 192 Кбит/с)
Аудио 2: Английский (AC3, 2 ch, 192 Кбит/с)
Работа над релизом:
Видеоряд найден в интернете.
Синхр. русской дорожки - kosmoaelita



С русским переводом

MediaInfo

Общее
Уникальный идентификатор : 172583859687347277105390425235572087813 (0x81D6713C78D1B3319D26758F03C35C05)
Полное имя : N:\BD-DISC\Ejecta.2014.1080p.BluRay.H264.AAC-RARBG\Ejecta 2014.x264.WEBRip.720p.Rus.kosmoaelita.mkv
Формат : Matroska
Версия формата : Version 4
Размер файла : 1,23 Гбайт
Продолжительность : 1 ч. 22 м.
Общий поток : 2143 Кбит/сек
Название фильма : Изгнанник / Выброс / Ejecta / 2014 / kosmoaelita
Дата кодирования : UTC 2021-11-08 07:08:04
Программа кодирования : mkvmerge v6.6.0 ('The Edge Of The In Between') built on Dec 1 2013 17:55:00
Библиотека кодирования : libebml v1.3.0 + libmatroska v1.4.1
Attachments : poster.jpg
Видео
Идентификатор : 1
Формат : AVC
Формат/Информация : Advanced Video Codec
Профиль формата : High@L3.1
Настройки формата : CABAC / 4 Ref Frames
Параметр CABAC формата : Да
Параметр RefFrames формата : 4 кадра
Параметр GOP формата : M=1, N=72
Идентификатор кодека : V_MPEG4/ISO/AVC
Продолжительность : 1 ч. 22 м.
Битрейт : 1716 Кбит/сек
Ширина : 1280 пикселей
Высота : 640 пикселей
Соотношение сторон : 2,000
Режим частоты кадров : Постоянный
Частота кадров : 23,976 (23976/1000) кадра/сек
Цветовое пространство : YUV
Субдискретизация насыщенности : 4:2:0
Битовая глубина : 8 бит
Тип развёртки : Прогрессивная
Бит/(Пиксели*Кадры) : 0.087
Размер потока : 1009 Мбайт (80%)
Заголовок : http://kosmoaelita.com/viewtopic.php?t=1584
Default : Да
Forced : Нет
Аудио #1
Идентификатор : 2
Формат : AC-3
Формат/Информация : Audio Coding 3
Коммерческое название : Dolby Digital
Идентификатор кодека : A_AC3
Продолжительность : 1 ч. 22 м.
Вид битрейта : Постоянный
Битрейт : 192 Кбит/сек
Каналы : 2 канала
ChannelLayout : L R
Частота : 48,0 КГц
Частота кадров : 31,250 кадров/сек (1536 SPF)
Битовая глубина : 16 бит
Метод сжатия : С потерями
Размер потока : 113 Мбайт (9%)
Заголовок : Русский ЛО (ХихиДок)
Язык : Russian
ServiceKind/String : Complete Main
Default : Да
Forced : Нет
Аудио #2
Идентификатор : 3
Формат : AC-3
Формат/Информация : Audio Coding 3
Коммерческое название : Dolby Digital
Идентификатор кодека : A_AC3
Продолжительность : 1 ч. 22 м.
Вид битрейта : Постоянный
Битрейт : 192 Кбит/сек
Каналы : 2 канала
ChannelLayout : L R
Частота : 48,0 КГц
Частота кадров : 31,250 кадров/сек (1536 SPF)
Битовая глубина : 16 бит
Метод сжатия : С потерями
Размер потока : 113 Мбайт (9%)
Язык : English
ServiceKind/String : Complete Main
Default : Нет
Forced : Нет

Скриншоты

Скринлист

Файл дополнительно залит на ОБЛАКО
Ejecta 2014.x264.WEBRip.720p.Rus.kosmoaelita.mkv.torrent
Torrent: Registered [ 2021-11-08 10:12 ]

Download .torrent

Download

13 KB

Status: checked
Completed: 4 times
Size: 1.23 GB
 


Last edited by Faer on 2015-02-04 18:19; edited 3 times in total
[Profile] [PM]

Faer ®

Gender: Male

Longevity: 6 years 11 months

Posts: 751

Post 03-Feb-2015 13:46 (after 3 minutes)

[Quote]

По наводке den904.
Заявлено как BDRip1080, но видео 1920х960.
[Profile] [PM]

Guest

Gender: Unknown

Post 04-Feb-2015 18:17 (after 1 day 4 hours)

[Quote]

Предлагаю перевод аннотации:
ИЗГНАННИК - это история о двух людях, которые стали свидетелями необъяснимого атмосферного явления накануне грандиозной солнечной бури и теперь должны выжить, поскольку их преследует устрашающий живой организм. Безымянная группа людей не остановится ни перед чем, чтобы раскопать правду о том, что же случилось с людьми той ночью и доказать миру, что мы не одни во вселенной.
Вообще-то ejecta лучше перевести как "выброс". Хотя фильм я еще не смотрел.
 

Faer ®

Gender: Male

Longevity: 6 years 11 months

Posts: 751

Post 04-Feb-2015 18:19 (after 1 minute)

[Quote]

9208Предлагаю перевод аннотации: [...]
Вообще-то ejecta лучше перевести как "выброс". Хотя фильм я еще не смотрел.
Спасибо. Название с кинопоиска, могу и его изменить.
[Profile] [PM]

Guest

Gender: Unknown

Post 04-Feb-2015 19:01 (after 42 minutes)

[Quote]

Пожалуйста. На самом деле, конечно, холера его знает. Надо смотреть кино.
 

Трамвай-фильм

Gender: Male

Longevity: 7 years 4 months

Posts: 1904

Location: Россия

Post 04-Feb-2015 20:23 (after 1 hour 22 minutes)

[Quote]

свои 5 коппек вставлю: на кинопоиске вообще корявые названия. пару раз. на других трекерах мне отказывали утверждать раздачу, истеря тем, что "я этот фильм не снимал, а значит только кинопоиск".
И кстати описания фильмов, там через один, не очень правильные и неточные
[Profile] [PM]

admin

Gender: Male

Longevity: 9 years 3 months

Posts: 4769

Post 04-Feb-2015 23:21 (after 2 hours 58 minutes)

[Quote]

На кинопоиске практически сразу меняют название, если указать им ссылку на страницу с переводом фильма. По крайней мере, на все мои уточнения - фильмы переименовывали
[Profile] [PM]

$Shorox

Gender: Male

Longevity: 8 years 11 months

Posts: 1850

Post 04-Feb-2015 23:49 (after 27 minutes)

[Quote]

admin,
Уточните как это сделать.
[Profile] [PM]

admin

Gender: Male

Longevity: 9 years 3 months

Posts: 4769

Post 05-Feb-2015 01:37 (after 1 hour 47 minutes)

[Quote]

[Profile] [PM]

kosmoaelita

Gender: Male

Longevity: 9 years 3 months

Posts: 1926

Post 08-Nov-2021 10:13 (after 6 years 9 months)

[Quote]

Добавлен русский перевод
[Profile] [PM]

bot

Post 08-Nov-2021 10:13 (after 15 seconds)

Топик был перенесен из форума Фант. фильмы без перевода в форум 2014
kosmoaelita
 
Display posts:    
Reply to topic

Current time is: 09-Dec 16:38

All times are UTC + 3



You cannot post new topics in this forum
You cannot reply to topics in this forum
You cannot edit your posts in this forum
You cannot delete your posts in this forum
You cannot vote in polls in this forum
You cannot attach files in this forum
You can download files in this forum