Изгнанник / Ejecta (Чад Арчибальд, Мэтт Уиэл) [2014, Канада, фантастика, BDRip] (БП)

Reply to topic
DL-List and Torrent activity
Size:  1.23 GB   |    Registered:  4 years 5 months   |    Completed:  3 times

Seeder not seen: 3 years 8 months

 
   
 
 
 
Author Message

Faer ®

Gender: Male

Longevity: 4 years 6 months

Posts: 344

Location: Сербия

Post 03-Feb-2015 13:42

[Quote]

Изгнанник / Ejecta
Страна: Канада
Жанр: фантастика
Год выпуска: 2014
Продолжительность: 01:22:11
Перевод: Отсутствует
Cубтитры: нет
Режиссер: Чад Арчибальд, Мэтт Уиэл
В ролях: Джулиан Ричингс, Лиза Хоул, Адам Сейболд, Марк Гибсон, Justin Darmanin, Райан Баррет, Эри Миллен, Cat Hostick, Тони Бёрджесс, Ди Уоллес-Стоун
Описание: ИЗГНАННИК - это история о двух людях, которые стали свидетелями необъяснимого атмосферного явления накануне грандиозной солнечной бури и теперь должны выжить, поскольку их преследует устрашающий живой организм. Безымянная группа людей не остановится ни перед чем, чтобы раскопать правду о том, что же случилось с людьми той ночью и доказать миру, что мы не одни во вселенной.
Качество видео: BDRip
Видео: MPEG4, 1920х960, 2.00, 23,976fps, 2046 Кбит/с
Аудио: ААС, 48.0 КГц 93,9 Кбит/с, стерео

MediaInfo

Общее
Полное имя : Ejecta.mp4
Формат : MPEG-4
Профиль формата : Base Media
Идентификатор кодека : isom
Размер файла : 1,23 Гбайт
Продолжительность : 1 ч. 22 м.
Режим общего битрейта : Переменный
Общий поток : 2142 Кбит/сек
Дата кодирования : UTC 2015-01-22 15:15:37
Дата пометки : UTC 2015-01-22 15:15:37
Видео
Идентификатор : 1
Формат : AVC
Формат/Информация : Advanced Video Codec
Профиль формата : High@L4.1
Параметр CABAC формата : Да
Параметр ReFrames формата : 4 кадра
Идентификатор кодека : avc1
Идентификатор кодека/Информация : Advanced Video Coding
Продолжительность : 1 ч. 22 м.
Битрейт : 2046 Кбит/сек
Максимальный битрейт : 23,1 Мбит/сек
Ширина : 1920 пикселей
Высота : 960 пикселей
Соотношение сторон : 2,000
Режим частоты кадров : Постоянный
Частота кадров : 23,976 кадра/сек
Цветовое пространство : YUV
Субдискретизация насыщенности : 4:2:0
Битовая глубина : 8 бит
Тип развёртки : Прогрессивная
Бит/(Пиксели*Кадры) : 0.046
Размер потока : 1,17 Гбайт (95%)
Библиотека кодирования : x264 core 142 r2479 dd79a61
Настройки программы : cabac=1 / ref=4 / deblock=1:-1:-1 / analyse=0x3:0x133 / me=umh / subme=9 / psy=1 / psy_rd=1.00:0.15 / mixed_ref=1 / me_range=24 / chroma_me=1 / trellis=2 / 8x8dct=1 / cqm=0 / deadzone=21,11 / fast_pskip=0 / chroma_qp_offset=-3 / threads=48 / lookahead_threads=4 / sliced_threads=0 / nr=0 / decimate=1 / interlaced=0 / bluray_compat=0 / constrained_intra=0 / bframes=3 / b_pyramid=2 / b_adapt=2 / b_bias=0 / direct=3 / weightb=1 / open_gop=0 / weightp=2 / keyint=250 / keyint_min=23 / scenecut=40 / intra_refresh=0 / rc_lookahead=60 / rc=2pass / mbtree=1 / bitrate=2046 / ratetol=1.0 / qcomp=0.60 / qpmin=0 / qpmax=69 / qpstep=4 / cplxblur=20.0 / qblur=0.5 / vbv_maxrate=31250 / vbv_bufsize=31250 / nal_hrd=none / filler=0 / ip_ratio=1.40 / aq=1:1.00
Дата кодирования : UTC 2015-01-22 15:15:37
Дата пометки : UTC 2015-01-22 15:15:43
Основные цвета : BT.709
Коэффициенты матрицы : BT.709
colour_range : Limited
Аудио
Идентификатор : 2
Формат : AAC
Формат/Информация : Advanced Audio Codec
Профиль формата : LC
Идентификатор кодека : 40
Продолжительность : 1 ч. 21 м.
Вид битрейта : Переменный
Битрейт : 93,9 Кбит/сек
Максимальный битрейт : 100 Кбит/сек
Каналы : 2 канала
Расположение каналов : Front: L R
Частота : 48,0 КГц
Метод сжатия : С потерями
Размер потока : 54,7 Мбайт (4%)
Язык : English
Дата кодирования : UTC 2015-01-22 15:15:42
Дата пометки : UTC 2015-01-22 15:15:43

Скриншот c названием фильма

Скриншоты



Ejecta.mp4.torrent
Torrent: Registered [ 2015-02-03 13:42 ]

Download .torrent

Download

12 KB

Status: checked
Completed: 3 times
Size: 1.23 GB
 


Last edited by Faer on 2015-02-04 18:19; edited 3 times in total
[Profile] [PM]

Faer ®

Gender: Male

Longevity: 4 years 6 months

Posts: 344

Location: Сербия

Post 03-Feb-2015 13:46 (after 3 minutes)

[Quote]

По наводке den904.
Заявлено как BDRip1080, но видео 1920х960.
[Profile] [PM]

admin

Gender: Male

Longevity: 6 years 10 months

Posts: 4725

Location: Україна

Post 03-Feb-2015 14:21 (after 34 minutes)

[Quote]

Судя по такому низкому битрейту - это WEB-DL, да и кодек звука AAC стерео
говорит о том же.
Качество, судя по скринам - не выше хорошего ДВДрипа
[Profile] [PM]

Guest

Gender: Unknown

Post 04-Feb-2015 18:17 (after 1 day 3 hours)

[Quote]

Предлагаю перевод аннотации:
ИЗГНАННИК - это история о двух людях, которые стали свидетелями необъяснимого атмосферного явления накануне грандиозной солнечной бури и теперь должны выжить, поскольку их преследует устрашающий живой организм. Безымянная группа людей не остановится ни перед чем, чтобы раскопать правду о том, что же случилось с людьми той ночью и доказать миру, что мы не одни во вселенной.
Вообще-то ejecta лучше перевести как "выброс". Хотя фильм я еще не смотрел.
 

Faer ®

Gender: Male

Longevity: 4 years 6 months

Posts: 344

Location: Сербия

Post 04-Feb-2015 18:19 (after 1 minute)

[Quote]

9208Предлагаю перевод аннотации: [...]
Вообще-то ejecta лучше перевести как "выброс". Хотя фильм я еще не смотрел.
Спасибо. Название с кинопоиска, могу и его изменить.
[Profile] [PM]

Guest

Gender: Unknown

Post 04-Feb-2015 19:01 (after 42 minutes)

[Quote]

Пожалуйста. На самом деле, конечно, холера его знает. Надо смотреть кино.
 

Трамвай-фильм

Gender: Male

Longevity: 4 years 11 months

Posts: 1469

Location: Россия

Post 04-Feb-2015 20:23 (after 1 hour 22 minutes)

[Quote]

свои 5 коппек вставлю: на кинопоиске вообще корявые названия. пару раз. на других трекерах мне отказывали утверждать раздачу, истеря тем, что "я этот фильм не снимал, а значит только кинопоиск".
И кстати описания фильмов, там через один, не очень правильные и неточные
[Profile] [PM]

admin

Gender: Male

Longevity: 6 years 10 months

Posts: 4725

Location: Україна

Post 04-Feb-2015 23:21 (after 2 hours 58 minutes)

[Quote]

На кинопоиске практически сразу меняют название, если указать им ссылку на страницу с переводом фильма. По крайней мере, на все мои уточнения - фильмы переименовывали
[Profile] [PM]

$Shorox

Gender: Male

Longevity: 6 years 7 months

Posts: 1888

Post 04-Feb-2015 23:49 (after 27 minutes)

[Quote]

admin,
Уточните как это сделать.
[Profile] [PM]

admin

Gender: Male

Longevity: 6 years 10 months

Posts: 4725

Location: Україна

Post 05-Feb-2015 01:37 (after 1 hour 47 minutes)

[Quote]

[Profile] [PM]
Display posts:    
Reply to topic

Current time is: 19-Jul 09:03

All times are UTC + 3



You cannot post new topics in this forum
You cannot reply to topics in this forum
You cannot edit your posts in this forum
You cannot delete your posts in this forum
You cannot vote in polls in this forum
You cannot attach files in this forum
You can download files in this forum