Дистанция / La distancia (Серхио Кабальеро) [2014, Испания, фантастика, детектив, DVDRip-AVC] (СТ : русские, английские, испанские) (Sub Rus, Eng, Esp)

Ответить на тему
Статистика раздачи
Размер:  780 MB   |    Зарегистрирован:  2 года 7 месяцев   |    Скачан:  0 раз

Полного источника не было: 1 год 10 месяцев

 
   
 
 
 
Автор Сообщение

Faer ®

Пол: Мужской

Стаж: 2 года 8 месяцев

Сообщений: 323

Откуда: Сербия

Создавать темы 02-Фев-2015 21:34

[Цитировать]

Дистанция / La distancia
Страна: Испания
Жанр: фантастика, детектив
Год выпуска: 2014
Продолжительность: 01:19:15
Перевод: Субтитры _ русские
Перевод 2: Субтитры __ английские
Перевод 3: Субтитры ___ испанские
Cубтитры: русские
Режиссер: Серхио Кабальеро
В ролях: Хинсон Аньяско, Пере Селма, Альберто Кондон, Михал Лагош, Ольга Леонтьева, Альберто Мартинес, Пау Нубиола, Роланд Олбетер, Шопи Лас Вегас, Види Видал
Описание: Россия, лихие 90-е. Молодой крымский крестьянин Василий отправился в Сибирь работать на угольной шахте. Вскоре он становится единственным хозяином большой электростанции и самого крупного угольного месторождения в России. Однажды Василий возвращается из дальней командировки со странной кампанией — его сопровождает немецкий художник и ручной койот. Василий запирает своего спутника с домашним животным на складе и благополучно умирает. После его смерти загадочный художник сколачивает банду из трёх карликов-экстрасенсов. Цель преступной группировки — добыча некоего артефакта, именуемого «дистанция».
Качество видео: DVDRip-AVC
Формат видео: MKV
Видео: MPEG4, 720х436@1024х436, 2.35:1, 1157 Кбит/с
Аудио: АС3, 48.0 кГц, 192 Кбит/с, стерео
Формат субтитров: prerendered (IDX+SUB) (английские, итальянские), srt (русские)


MediaInfo

Общее
Уникальный идентификатор : 232577205777917806363941308655900845325 (0xAEF8BD9157019E55933E85A29E84650D)
Полное имя :La distancia.mkv
Формат : Matroska
Версия формата : Version 4 / Version 2
Размер файла : 780 Мбайт
Продолжительность : 1 ч. 19 м.
Общий поток : 1377 Кбит/сек
Дата кодирования : UTC 2015-02-02 17:48:22
Программа кодирования : mkvmerge v6.8.0 ('Theme for Great Cities') 32bit built on Mar 2 2014 21:27:07
Библиотека кодирования : libebml v1.3.0 + libmatroska v1.4.1
DURATION : 01:16:07.552000000
NUMBER_OF_FRAMES : 245
NUMBER_OF_BYTES : 341346
_STATISTICS_WRITING_APP : mkvmerge v7.4.0 ('Circles') 64bit built on Dec 12 2014 12:19:56
_STATISTICS_WRITING_DATE_UTC : 2014-12-19 20:56:19
_STATISTICS_TAGS : BPS DURATION NUMBER_OF_FRAMES NUMBER_OF_BYTES
Видео
Идентификатор : 1
Формат : AVC
Формат/Информация : Advanced Video Codec
Профиль формата : High@L3.1
Параметр CABAC формата : Да
Параметр ReFrames формата : 10 кадров
Идентификатор кодека : V_MPEG4/ISO/AVC
Продолжительность : 1 ч. 19 м.
Битрейт : 1157 Кбит/сек
Ширина : 720 пикселей
Высота : 436 пикселей
Соотношение сторон : 2,35:1
Режим частоты кадров : Постоянный
Частота кадров : 25,000 кадров/сек
Цветовое пространство : YUV
Субдискретизация насыщенности : 4:2:0
Битовая глубина : 8 бит
Тип развёртки : Прогрессивная
Бит/(Пиксели*Кадры) : 0.147
Размер потока : 656 Мбайт (84%)
Библиотека кодирования : x264 core 142 r2491 24e4fed
Настройки программы : cabac=1 / ref=10 / deblock=1:-3:-3 / analyse=0x3:0x133 / me=umh / subme=10 / psy=1 / psy_rd=1.00:0.15 / mixed_ref=1 / me_range=32 / chroma_me=1 / trellis=2 / 8x8dct=1 / cqm=0 / deadzone=21,11 / fast_pskip=0 / chroma_qp_offset=-3 / threads=12 / lookahead_threads=2 / sliced_threads=0 / nr=0 / decimate=0 / interlaced=0 / bluray_compat=0 / constrained_intra=0 / bframes=8 / b_pyramid=2 / b_adapt=2 / b_bias=0 / direct=3 / weightb=1 / open_gop=0 / weightp=2 / keyint=250 / keyint_min=25 / scenecut=40 / intra_refresh=0 / rc_lookahead=100 / rc=crf / mbtree=0 / crf=16.0 / qcomp=0.60 / qpmin=0 / qpmax=69 / qpstep=4 / vbv_maxrate=17500 / vbv_bufsize=17500 / crf_max=0.0 / nal_hrd=none / filler=0 / ip_ratio=1.40 / pb_ratio=1.30 / aq=1:1.00
Язык : English
Default : Да
Forced : Нет
DURATION : 01:19:14.880000000
NUMBER_OF_FRAMES : 118872
NUMBER_OF_BYTES : 702409052
_STATISTICS_WRITING_APP : mkvmerge v7.4.0 ('Circles') 64bit built on Dec 12 2014 12:19:56
_STATISTICS_WRITING_DATE_UTC : 2014-12-19 20:56:19
_STATISTICS_TAGS : BPS DURATION NUMBER_OF_FRAMES NUMBER_OF_BYTES
Аудио
Идентификатор : 2
Формат : AC-3
Формат/Информация : Audio Coding 3
Расширение режима : CM (complete main)
Параметр Endianness формата : Big
Идентификатор кодека : A_AC3
Продолжительность : 1 ч. 19 м.
Вид битрейта : Постоянный
Битрейт : 192 Кбит/сек
Каналы : 2 канала
Расположение каналов : Front: L R
Частота : 48,0 КГц
Битовая глубина : 16 бит
Метод сжатия : С потерями
Размер потока : 109 Мбайт (14%)
Default : Да
Forced : Нет
Текст #1
Идентификатор : 3
Формат : VobSub
Режим смешивания : zlib
Идентификатор кодека : S_VOBSUB
Идентификатор кодека/Информация : The same subtitle format used on DVDs
Язык : Spanish
Default : Да
Forced : Нет
Текст #2
Идентификатор : 4
Формат : VobSub
Режим смешивания : zlib
Идентификатор кодека : S_VOBSUB
Идентификатор кодека/Информация : The same subtitle format used on DVDs
Язык : English
Default : Нет
Forced : Нет
Текст #3
Идентификатор : 5
Формат : UTF-8
Идентификатор кодека : S_TEXT/UTF8
Идентификатор кодека/Информация : UTF-8 Plain Text
Язык : Russian
Default : Нет
Forced : Нет

Скриншоты



La distancia.mkv.torrent
Торрент: Зарегистрирован [ 2015-02-02 21:34 ]

Скачать .torrent

Скачать

15 KB

Статус: проверено
Скачан: 0 раз
Размер: 780 MB
 
[Профиль] [ЛС]
Показать сообщения:    
Ответить на тему

Текущее время: 22-Сен 13:25

Часовой пояс: UTC + 3:30



Вы не можете начинать темы
Вы не можете отвечать на сообщения
Вы не можете редактировать свои сообщения
Вы не можете удалять свои сообщения
Вы не можете голосовать в опросах
Вы не можете прикреплять файлы к сообщениям
Вы можете скачивать файлы