Классический Доктор Кто / Doctor Who Classic / Сезон: 2 / Серии: 1-39 из 39 (Уорис Хуссейн, Кристофер Барри и др) [1964, фантастика, драма, приключения, DVDRip] (DVO : Алексей Кузнецов и Светлана Доманова) (Original)

Reply to topic
 
Author Message

Faer ®

Gender: Male

Longevity: 7 years 4 months

Posts: 870

Post 01-Feb-2015 01:09

[Quote]

Классический Доктор Кто / Doctor Who Classic
Год выпуска: 1964
Страна: Великобритания
Жанр: фантастика, драма, приключения
Продолжительность: 00:24:00
Перевод: Любительский двухголосый закадровый (Алексей Кузнецов и Светлана Доманова)
Русские субтитры: нет
Режиссёр: Уорис Хуссейн, Кристофер Барри, Ричард Мартин, Фрэнк Кокс, Джон Горри, Мэрвин Пинфилд и др
В ролях: Уильям Хартнел, Уильям Рассел, Жаклин Хилл, Кэрол Энн Форд
Описание: Доктор Кто (Doctor Who) — британский научно-фантастический телесериал компании Би-Би-Си о загадочном путешественнике во времени, известном как «Доктор», который вместе со своими спутниками исследует время и пространство, борясь со вселенским злом.
У него на вооружении - машина времени TARDIS - Time And Relative Dimension In Space. Снаружи это всего лишь британская полицейская будка 1950-х, а внутри гораздо более просторный пространственно-временной корабль.

Доп. информация:

Бонусы к третьей серии: Документальный фильм "Монтаж "Спасения"" с главными актёрами сериала уже в наше время,
различные чертежи,
фотогалерея в видеоформате.
Прилагаются html-файлы с расшифровкой на английском и автоматическим переводом на русский в Google-переводчике.
Бонусы к четвёртой серии: Реальность или вымысел - история Римской империи в "Докторе Кто".
* Документальный фильм "Какое значение имеют "Римляне" для нас" с актерами Уильямом Расселлом (Йен), Кей Патрик (Поппея), различными исполнителями ролей Нерона в кино, историками, режиссёром Кристофером Барри, сценаристом эпизода "Огни Помпей" (2008) Джеймсом Мораном и фрагментами с Дэвидом Тэннантом.
* "Рома Парва". Режиссёр Кристофер Барри демонстрирует модель студии, в которой снимался эпизод "Римляне".
* "Деннис Спунер - Хотите создать сериал?" - Деннису Спунеру удалось вплести в фантастический сюжет "Доктора Кто", вместе с интересными и жестокими историческими фактами комедийные сцены.
* Blue Peter - команда Blue Peter устроила римский банкет в студии.
* Актрисы и компаньонши Доктора - Девушки! Девушки! Девушки! - Кто-Девушки 60-х.
* Прилагаются субтитры на английском и автоматическим переводом на русский в Google-переводчике.
Ссылка на предыдущие и альтернативные раздачи:
http://kosmoaelita.com/viewtopic.php?p=9116 - Первый сезон

Качество: DVDRip
Формат: AVI
Видео кодек: XviD
Аудио кодек: MP3
Видео: XviD, 656х480, 4:3, 25fps, 1135 Кбит/с, 0.144 bit/pixel
Аудио: MP3, 48.0 КГц, 128 Кбит/с, стерео [русский, Baibak]
Аудио 2: MP3, 48.0 КГц, 128 Кбит/с, стерео [английский]


Работа над релизом:
Перевод: petrol_08
Сведение: Baibak
Постер: tvblog
Спасибо Чемпиону и К

MediaInfo

Общее
Полное имя : [2x03] The Rescue\Doctor.Who.Classic.s02e03a(52)-The.Powerful.Enemy.DVDRip.Rus-Eng.1001cinema.tv.avi
Формат : AVI
Формат/Информация : Audio Video Interleave
Размер файла : 253 Мбайт
Продолжительность : 25 м.
Общий поток : 1406 Кбит/сек
Программа кодирования : VirtualDubMod 1.5.10.2 (build 2540/release)
Библиотека кодирования : VirtualDubMod build 2540/release
Видео
Идентификатор : 0
Формат : MPEG-4 Visual
Профиль формата : Advanced Simple@L5
Параметр BVOP формата : 2
Параметр QPel формата : Нет
Параметр GMC формата : Без точки перехода
Параметр матрицы формата : Default (H.263)
Режим смешивания : Сжатый битовый поток
Идентификатор кодека : XVID
Идентификатор кодека/Подсказка : XviD
Продолжительность : 25 м.
Битрейт : 1135 Кбит/сек
Ширина : 656 пикселей
Высота : 480 пикселей
Соотношение сторон : 4:3
Частота кадров : 25,000 кадров/сек
Цветовое пространство : YUV
Субдискретизация насыщенности : 4:2:0
Битовая глубина : 8 бит
Тип развёртки : Прогрессивная
Метод сжатия : С потерями
Бит/(Пиксели*Кадры) : 0.144
Размер потока : 205 Мбайт (81%)
Библиотека кодирования : XviD 1.2.1 (UTC 2008-12-04)
Аудио #1
Идентификатор : 1
Формат : MPEG Audio
Версия формата : Version 1
Профиль формата : Layer 3
Режим : Joint stereo
Расширение режима : MS Stereo
Идентификатор кодека : 55
Идентификатор кодека/Подсказка : MP3
Продолжительность : 25 м.
Вид битрейта : Постоянный
Битрейт : 128 Кбит/сек
Каналы : 2 канала
Частота : 48,0 КГц
Метод сжатия : С потерями
Размер потока : 23,1 Мбайт (9%)
Выравнивание : Соединение по промежуткам
Продолжительность промежутка : 40 мс. (1,00 видеокадр)
Время предзагрузки промежутка : 504 мс.
Аудио #2
Идентификатор : 2
Формат : MPEG Audio
Версия формата : Version 1
Профиль формата : Layer 3
Режим : Joint stereo
Расширение режима : MS Stereo
Идентификатор кодека : 55
Идентификатор кодека/Подсказка : MP3
Продолжительность : 25 м.
Вид битрейта : Постоянный
Битрейт : 128 Кбит/сек
Каналы : 2 канала
Частота : 48,0 КГц
Метод сжатия : С потерями
Размер потока : 23,1 Мбайт (9%)
Выравнивание : Соединение по промежуткам
Продолжительность промежутка : 40 мс. (1,00 видеокадр)
Время предзагрузки промежутка : 504 мс.

Скриншоты



[Profile] [PM]
Display posts:    
Reply to topic

Current time is: 28-May 05:15

All times are UTC + 3



You cannot post new topics in this forum
You cannot reply to topics in this forum
You cannot edit your posts in this forum
You cannot delete your posts in this forum
You cannot vote in polls in this forum
You cannot attach files in this forum
You cannot download files in this forum