Последний толчок / Последний Рывок / The Last Push (Эрик Хэйден) [2012, США, фантастика, драма, WEB-DL Rip 1080p] (СТ : русские, английские) (Sub Rus, Eng)

Reply to topic
 
Author Message

Faer ®

Gender: Male

Longevity: 4 years 5 months

Posts: 344

Location: Сербия

Post 31-Jan-2015 17:23

[Quote]

Последний толчок / Последний Рывок / The Last Push
Страна: США
Жанр: фантастика, драма
Год выпуска: 2012
Продолжительность: 01:24:46
Перевод: Субтитры _ русские
Перевод 2: Субтитры __ английские
Cубтитры: русские, английские
Режиссер: Эрик Хэйден
В ролях: Хари Пэйтон, Лэнс Хенриксен, Брайан Баумгартнер, Джеймс Мадио, Алек Гиллис, Том Вудрафф мл., Паскаль Ламонтейн
Описание: Впервые за всю историю человечества были получены неумолимые доказательства того, что жизнь существует не только на Земле. После того, как НАСА опубликовала снимки китов на Европе, ледяном спутнике Юпитера, два астронавта, Натан Миллер и Майкл Форрест отправились в тринадцатилетнее путешествие, большую часть которого они должны провести в анабиозе. Весь мир напряжённо следит за героями, которые в полном одиночестве летят на своём хрупком корабле за миллионы миль от дома. Сумеют ли они добраться до своей цели?
Качество видео: WEB-DL Rip 1080p
Формат видео: MKV
Видео: MPEG4, 1920x820, 2.35:1, 25fps, 1997 Кбит/с
Аудио: АС3, 256 Кбит/с, 48.0 кГц, 256 Кбит/с
Формат субтитров: softsub (SRT)


Mediainfo

Уникальный идентификатор : 211107378901226313280991037292829640297 (0x9ED1CD604D3C7E058D4EDDFC37468669)
Полное имя : F:\Архив\Фильмы\Astronaut - The Last Push.mkv
Формат : Matroska
Версия формата : Version 4 / Version 2
Размер файла : 1,34 Гбайт
Продолжительность : 1 ч. 24 м.
Общий поток : 2266 Кбит/сек
Дата кодирования : UTC 2015-01-15 10:52:59
Программа кодирования : mkvmerge v6.0.0 ('Coming Up For Air') built on Jan 20 2013 09:52:00
Библиотека кодирования : libebml v1.3.0 + libmatroska v1.4.0
Видео
Идентификатор : 1
Формат : AVC
Формат/Информация : Advanced Video Codec
Профиль формата : High@L4.1
Параметр CABAC формата : Да
Параметр ReFrames формата : 4 кадра
Идентификатор кодека : V_MPEG4/ISO/AVC
Продолжительность : 1 ч. 24 м.
Битрейт : 1997 Кбит/сек
Ширина : 1920 пикселей
Высота : 820 пикселей
Соотношение сторон : 2,35:1
Режим частоты кадров : Постоянный
Частота кадров : 25,000 кадров/сек
Цветовое пространство : YUV
Субдискретизация насыщенности : 4:2:0
Битовая глубина : 8 бит
Тип развёртки : Прогрессивная
Бит/(Пиксели*Кадры) : 0.051
Размер потока : 1,16 Гбайт (87%)
Библиотека кодирования : x264 core 142 r2409 d6b4e63
Настройки программы : cabac=1 / ref=4 / deblock=1:-1:-1 / analyse=0x3:0x133 / me=umh / subme=9 / psy=1 / psy_rd=1.00:0.15 / mixed_ref=1 / me_range=24 / chroma_me=1 / trellis=2 / 8x8dct=1 / cqm=0 / deadzone=21,11 / fast_pskip=0 / chroma_qp_offset=-3 / threads=12 / lookahead_threads=1 / sliced_threads=0 / nr=0 / decimate=1 / interlaced=0 / bluray_compat=0 / constrained_intra=0 / bframes=3 / b_pyramid=2 / b_adapt=2 / b_bias=0 / direct=3 / weightb=1 / open_gop=0 / weightp=2 / keyint=250 / keyint_min=25 / scenecut=40 / intra_refresh=0 / rc_lookahead=60 / rc=2pass / mbtree=1 / bitrate=1997 / ratetol=1.0 / qcomp=0.60 / qpmin=0 / qpmax=69 / qpstep=4 / cplxblur=20.0 / qblur=0.5 / vbv_maxrate=31250 / vbv_bufsize=31250 / nal_hrd=none / filler=0 / ip_ratio=1.40 / aq=1:1.00
Default : Да
Forced : Нет
Основные цвета : BT.709
Коэффициенты матрицы : BT.709
colour_range : Limited
Аудио
Идентификатор : 2
Формат : AC-3
Формат/Информация : Audio Coding 3
Расширение режима : CM (complete main)
Параметр Endianness формата : Big
Идентификатор кодека : A_AC3
Продолжительность : 1 ч. 24 м.
Вид битрейта : Постоянный
Битрейт : 256 Кбит/сек
Каналы : 2 канала
Расположение каналов : Front: L R
Частота : 48,0 КГц
Битовая глубина : 16 бит
Метод сжатия : С потерями
Задержка видео : 2 с. 500 мс.
Размер потока : 155 Мбайт (11%)
Язык : English
Default : Да
Forced : Нет
Текст #1
Идентификатор : 3
Формат : UTF-8
Идентификатор кодека : S_TEXT/UTF8
Идентификатор кодека/Информация : UTF-8 Plain Text
Язык : Russian
Default : Да
Forced : Нет
Текст #2
Идентификатор : 4
Формат : UTF-8
Идентификатор кодека : S_TEXT/UTF8
Идентификатор кодека/Информация : UTF-8 Plain Text
Язык : English
Default : Нет
Forced : Нет

Скриншоты



[Profile] [PM]

Faer ®

Gender: Male

Longevity: 4 years 5 months

Posts: 344

Location: Сербия

Post 31-Jan-2015 18:25 (after 1 hour 2 minutes)

[Quote]

На рутрекере нема, озвучки тоже не нашел.
[Profile] [PM]

Guest

Gender: Unknown

Post 20-Feb-2015 18:23 (after 19 days)

[Quote]

В фильме звук пропадает регулярно
 
Quick Reply

Name:

            
Heads necessary to send messages to enable JavaScript
Display posts:    
Reply to topic

Current time is: 21-Jun 00:17

All times are UTC + 3



You cannot post new topics in this forum
You can reply to topics in this forum
You cannot edit your posts in this forum
You cannot delete your posts in this forum
You cannot vote in polls in this forum
You cannot attach files in this forum
You cannot download files in this forum