Космический пират Харлок / Space Pirate Captain Harlock (Синдзи Арамаки) [Япония, США, Франция, фантастика, боевик, приключения, BDRip-AVC] [расширенная версия] (ДБ : [R5] + Ю.Живов) (СТ : русские+форс.) (СТ : английские) (Sub Rus, Eng)

Reply to topic
 
Author Message

Faer ®

Gender: Male

Longevity: 4 years 9 months

Posts: 349

Location: Сербия

Post 27-Jan-2015 10:59

[Quote]

Космический пират капитан Харлок / Space Pirate Captain Harlock / расширенная версия
Страна: Япония, США, Франция
Жанр: фантастика, боевик, приключения
Перевод: Профессиональный (дублированный) [лицензия R5] + Ю.Живов [на расширенные сцены]
Перевод 2: Субтитры русские
Перевод 3: Субтитры русские (форс.)
Перевод 4: Субтитры английские
Cубтитры: русские, английские
Режиссер: Синдзи Арамаки
Описание: В будущем человечество обнаружило способ путешествовать быстрее света и построило колонии на тысячах планет. Но даже ресурсы Вселенной начинают сокращаться, поэтому пятьсот миллиардов людей начинают долгое путешествие обратно домой. Желание населить Землю перерастает в войну, пока универсальное правительство коалиции не объявляет Землю священной, и, таким образом, недоступной. В этой умирающей Вселенной космический пират, Капитан Харлок, преследующий таинственные цели, путешествует на своем очень мощном флагмане Аркадии. Молодой Яма, брат командующего флотом Ездры, проникает в экипаж Аркадии, чтобы раскрыть цели пиратского капитана.
Сэмпл: http://multi-up.com/1005624
Качество видео: BDRip-AVC
Формат видео: MKV
Видео: X264, 1060x444, 2.40:1, 23.976 fps, 1814 Кбит/с
Аудио: AC3 Dolby Digital, 48 kHz, 384 Кбит/с, 6 каналов (русская)
Аудио 2: AC3 Dolby Digital, 48 kHz, 448 Кбит/с, 6 каналов (японская)
Формат субтитров: softsub (SRT)


MediaInfo

Общее
Уникальный идентификатор : 178963467457489064608793703091116004110 (0x86A31C2F0A43A3848D97999A3999530E)
Полное имя : F:\Архив\Фильмы\Harlock (2013).mkv
Формат : Matroska
Версия формата : Version 4 / Version 2
Размер файла : 2,13 Гбайт
Продолжительность : 1 ч. 55 м.
Общий поток : 2648 Кбит/сек
Название фильма : Space Pirate Captain Harlock (2013) - HELLYWOOD
Дата кодирования : UTC 2014-10-12 14:16:20
Программа кодирования : mkvmerge v5.9.0 ('On The Loose') built on Dec 15 2012 16:39:58
Библиотека кодирования : libebml v1.3.0 + libmatroska v1.4.0
Видео
Идентификатор : 1
Формат : AVC
Формат/Информация : Advanced Video Codec
Профиль формата : High@L4.1
Параметр CABAC формата : Да
Параметр ReFrames формата : 10 кадров
Идентификатор кодека : V_MPEG4/ISO/AVC
Продолжительность : 1 ч. 55 м.
Битрейт : 1814 Кбит/сек
Ширина : 1060 пикселей
Высота : 444 пикселя
Соотношение сторон : 2,40:1
Режим частоты кадров : Постоянный
Частота кадров : 23,976 кадра/сек
Цветовое пространство : YUV
Субдискретизация насыщенности : 4:2:0
Битовая глубина : 8 бит
Тип развёртки : Прогрессивная
Бит/(Пиксели*Кадры) : 0.161
Размер потока : 1,42 Гбайт (67%)
Заголовок : potroks
Библиотека кодирования : x264 core 130 r2273 b3065e6
Настройки программы : cabac=1 / ref=10 / deblock=1:-1:-1 / analyse=0x3:0x133 / me=umh / subme=11 / psy=1 / psy_rd=1.01:0.01 / mixed_ref=1 / me_range=32 / chroma_me=1 / trellis=2 / 8x8dct=1 / cqm=0 / deadzone=21,11 / fast_pskip=0 / chroma_qp_offset=-3 / threads=9 / lookahead_threads=6 / sliced_threads=0 / nr=0 / decimate=0 / interlaced=0 / bluray_compat=0 / constrained_intra=0 / bframes=11 / b_pyramid=2 / b_adapt=2 / b_bias=0 / direct=3 / weightb=1 / open_gop=0 / weightp=2 / keyint=250 / keyint_min=23 / scenecut=40 / intra_refresh=0 / rc_lookahead=60 / rc=2pass / mbtree=0 / bitrate=1814 / ratetol=1.0 / qcomp=0.70 / qpmin=0 / qpmax=69 / qpstep=4 / cplxblur=20.0 / qblur=0.5 / vbv_maxrate=20000 / vbv_bufsize=20000 / nal_hrd=none / ip_ratio=1.35 / pb_ratio=1.25 / aq=1:0.80
Язык : Japanese
Default : Да
Forced : Нет
Аудио #1
Идентификатор : 2
Формат : AC-3
Формат/Информация : Audio Coding 3
Расширение режима : CM (complete main)
Параметр Endianness формата : Big
Идентификатор кодека : A_AC3
Продолжительность : 1 ч. 55 м.
Вид битрейта : Постоянный
Битрейт : 384 Кбит/сек
Каналы : 6 каналов
Расположение каналов : Front: L C R, Side: L R, LFE
Частота : 48,0 КГц
Битовая глубина : 16 бит
Метод сжатия : С потерями
Размер потока : 316 Мбайт (15%)
Заголовок : DDub | DD 5.1 @ 384 kbps - 5 [Мистерия Звука]
Язык : Russian
Default : Да
Forced : Нет
Аудио #2
Идентификатор : 3
Формат : AC-3
Формат/Информация : Audio Coding 3
Расширение режима : CM (complete main)
Параметр Endianness формата : Big
Идентификатор кодека : A_AC3
Продолжительность : 1 ч. 55 м.
Вид битрейта : Постоянный
Битрейт : 448 Кбит/сек
Каналы : 6 каналов
Расположение каналов : Front: L C R, Side: L R, LFE
Частота : 48,0 КГц
Битовая глубина : 16 бит
Метод сжатия : С потерями
Размер потока : 369 Мбайт (17%)
Заголовок : Original | DD 5.1 @ 448 kbps
Язык : Japanese
Default : Нет
Forced : Нет
Текст #1
Идентификатор : 4
Формат : UTF-8
Идентификатор кодека : S_TEXT/UTF8
Идентификатор кодека/Информация : UTF-8 Plain Text
Заголовок : форс.
Язык : Russian
Default : Да
Forced : Нет
Текст #2
Идентификатор : 5
Формат : UTF-8
Идентификатор кодека : S_TEXT/UTF8
Идентификатор кодека/Информация : UTF-8 Plain Text
Язык : Russian
Default : Нет
Forced : Нет
Текст #3
Идентификатор : 6
Формат : UTF-8
Идентификатор кодека : S_TEXT/UTF8
Идентификатор кодека/Информация : UTF-8 Plain Text
Язык : English
Default : Нет
Forced : Нет
Меню
00:02:00.453 : en:(01)00:02:00:453
00:07:42.920 : en:(02)00:07:42:920
00:14:16.897 : en:(03)00:14:16:897
00:18:00.119 : en:(04)00:18:00:119
00:24:02.315 : en:(05)00:24:02:315
00:30:51.349 : en:(06)00:30:51:349
00:40:31.053 : en:(07)00:40:31:053
00:43:42.411 : en:(08)00:43:42:411
00:49:21.500 : en:(09)00:49:21:500
00:54:03.365 : en:(10)00:54:03:365
01:06:38.244 : en:(11)01:06:38:244
01:21:25.421 : en:(12)01:21:25:421
01:23:40.557 : en:(13)01:23:40:557
01:36:55.725 : en:(14)01:36:55:725
01:41:41.512 : en:(15)01:41:41:512
01:47:42.456 : en:(16)01:47:42:456

Скриншоты




[Profile] [PM]

Faer ®

Gender: Male

Longevity: 4 years 9 months

Posts: 349

Location: Сербия

Post 27-Jan-2015 11:03 (after 3 minutes)

[Quote]

Пришлось извратиться и кой-чего урезать, чтоб шапка вошла.
[Profile] [PM]
Display posts:    
Reply to topic

Current time is: 21-Oct 08:47

All times are UTC + 3



You cannot post new topics in this forum
You cannot reply to topics in this forum
You cannot edit your posts in this forum
You cannot delete your posts in this forum
You cannot vote in polls in this forum
You cannot attach files in this forum
You cannot download files in this forum