Монстр / Monsterz (Хидео Наката) [2014, Япония, фантастика, триллер, драма, DVDRip] (ЛД : DeadSno & den904)

Ответить на тему
Статистика раздачи
Размер:  1,41 GB   |    Зарегистрирован:  2 года 9 месяцев   |    Скачан:  1 раз

Полного источника не было: 2 года 1 месяц

 
   
 
 
 
Автор Сообщение

Faer ®

Пол: Мужской

Стаж: 2 года 10 месяцев

Сообщений: 325

Откуда: Сербия

Создавать темы 25-Янв-2015 15:13

[Цитировать]

Монстр / Monsterz
Страна: Япония
Жанр: фантастика, триллер, драма
Год выпуска: 2014
Продолжительность: 01:51:59
Перевод: Любительский (двухголосый) _ DeadSno & den904
Режиссер: Хидео Наката
В ролях: Мина Фудзий, Тацуя Фудзивара, Сатоми Исихара, Тай Кимура, Ютака Мацусигэ, Масаки Миура, Мотоки Очиай, Томорово Тагути
Описание: Мужчина обладает способностью управлять другими людьми при помощи взгляда. Из-за этого дара он убил своего жестокого отца, а его мать покинула его. Однажды он встречает человека, на которого не действуют его способности…
Качество видео: DVDRip
Формат видео: AVI
Видео: XviD, 720x304, 2.35:1, 23.976fps, 1410 Кбит/с
Аудио: АС3, 48.0 КГц, 192 Кбит/с, стерео (русский)
Аудио 2: АС3, 48.0 КГц, 192 Кбит/с, стерео (японский)


MediaInfo

бщее
Полное имя : F:\Архив\Фильмы\Monsterz.2014.DVDRip.avi
Формат : AVI
Формат/Информация : Audio Video Interleave
Размер файла : 1,41 Гбайт
Продолжительность : 1 ч. 51 м.
Общий поток : 1808 Кбит/сек
Программа кодирования : VirtualDubMod 1.5.10.2 (build 2542/release)
Библиотека кодирования : VirtualDubMod build 2542/release
Видео
Идентификатор : 0
Формат : MPEG-4 Visual
Профиль формата : Advanced Simple@L5
Параметр BVOP формата : 2
Параметр QPel формата : Нет
Параметр GMC формата : Без точки перехода
Параметр матрицы формата : Default (MPEG)
Идентификатор кодека : XVID
Идентификатор кодека/Подсказка : XviD
Продолжительность : 1 ч. 51 м.
Битрейт : 1410 Кбит/сек
Ширина : 720 пикселей
Высота : 304 пикселя
Соотношение сторон : 2,35:1
Частота кадров : 23,976 кадра/сек
Цветовое пространство : YUV
Субдискретизация насыщенности : 4:2:0
Битовая глубина : 8 бит
Тип развёртки : Прогрессивная
Метод сжатия : С потерями
Бит/(Пиксели*Кадры) : 0.269
Размер потока : 1,10 Гбайт (78%)
Библиотека кодирования : XviD 1.2.1 (UTC 2008-12-04)
Аудио #1
Идентификатор : 1
Формат : AC-3
Формат/Информация : Audio Coding 3
Расширение режима : CM (complete main)
Параметр Endianness формата : Big
Идентификатор кодека : 2000
Продолжительность : 1 ч. 51 м.
Вид битрейта : Постоянный
Битрейт : 192 Кбит/сек
Каналы : 2 канала
Расположение каналов : Front: L R
Частота : 48,0 КГц
Битовая глубина : 16 бит
Метод сжатия : С потерями
Размер потока : 154 Мбайт (11%)
Выравнивание : Разделение по промежуткам
Продолжительность промежутка : 42 мс. (1,00 видеокадр)
Время предзагрузки промежутка : 500 мс.
Аудио #2
Идентификатор : 2
Формат : AC-3
Формат/Информация : Audio Coding 3
Расширение режима : CM (complete main)
Параметр Endianness формата : Big
Идентификатор кодека : 2000
Продолжительность : 1 ч. 51 м.
Вид битрейта : Постоянный
Битрейт : 192 Кбит/сек
Каналы : 2 канала
Расположение каналов : Front: L R
Частота : 48,0 КГц
Битовая глубина : 16 бит
Метод сжатия : С потерями
Размер потока : 154 Мбайт (11%)
Выравнивание : Разделение по промежуткам
Продолжительность промежутка : 42 мс. (1,00 видеокадр)
Время предзагрузки промежутка : 500 мс.

Скриншоты




Monsterz.2014.DVDRip.avi.torrent
Торрент: Зарегистрирован [ 2015-01-25 15:13 ]

Скачать .torrent

Скачать

14 KB

Статус: проверено
Скачан: 1 раз
Размер: 1,41 GB
 
[Профиль] [ЛС]
Показать сообщения:    
Ответить на тему

Текущее время: 24-Ноя 08:58

Часовой пояс: UTC + 3:30



Вы не можете начинать темы
Вы не можете отвечать на сообщения
Вы не можете редактировать свои сообщения
Вы не можете удалять свои сообщения
Вы не можете голосовать в опросах
Вы не можете прикреплять файлы к сообщениям
Вы можете скачивать файлы