009-1: Конец начала / 009 No 1: The End of the Beginning (Койти Сакамото) [2013, Япония, фантастика, боевик, HDRip] (ЛД : DeadSno & den904)

Reply to topic
DL-List and Torrent activity
Size:  1.36 GB   |    Registered:  5 years 8 months   |    Completed:  1 time

Seeder not seen: 4 years 11 months

 
   
 
 
 
Author Message

Faer ®

Gender: Male

Longevity: 5 years 8 months

Posts: 456

Post 25-Jan-2015 08:39

[Quote]

009-1: Конец начала / 009 No 1: The End of the Beginning
Страна: Япония
Жанр: фантастика, боевик
Год выпуска: 2013
Продолжительность: 01:24:14
Перевод: Любительский (двухголосый) _ DeadSno & den904
Режиссер: Койти Сакамото
В ролях: Mami Abe, Рёхеи Абе, Санаэ Хитоми, Хиротаро Хонда, Mao Ichimichi, Маюко Иваса, Minehiro Kinomoto, Шизука Мидорикава, Нао Нагасава, Ayumi Shimozono
Описание: История разворачивается в будущем. Мир разделён на 2 блока: Западный и Восточный, между которыми ведётся холодная война. Милен — шпионка-киборг 009-1 из Западного блока. Она тайно пробирается в страну J (пограничная область между двумя блоками), чтобы разоблачить торговцев людьми. В ходе выполнения своей миссии она знакомится с парнем по имени Крис, который рассказывает ей важную информацию. Милен заканчивает миссию, но Криса забыть не может…
Качество видео: HDRip
Формат видео: AVI
Видео: XviD, 720x384, 1.85:1, 23.976fps, 2125 Кбит/с
Аудио: AC3, 48.0 КГц, 192 Кбит/с, стерео


MediaInfo

Формат : AVI
Формат/Информация : Audio Video Interleave
Размер файла : 1,37 Гбайт
Продолжительность : 1 ч. 24 м.
Общий поток : 2326 Кбит/сек
Программа кодирования : VirtualDubMod 1.5.10.3 | www.virtualdub-fr.org || (build 2550/release)
Библиотека кодирования : VirtualDubMod build 2550/release
Видео
Идентификатор : 0
Формат : MPEG-4 Visual
Профиль формата : Advanced Simple@L5
Параметр BVOP формата : 1
Параметр QPel формата : Нет
Параметр GMC формата : Без точки перехода
Параметр матрицы формата : Выборочная
Идентификатор кодека : XVID
Идентификатор кодека/Подсказка : XviD
Продолжительность : 1 ч. 24 м.
Битрейт : 2125 Кбит/сек
Ширина : 720 пикселей
Высота : 384 пикселя
Соотношение сторон : 1,85:1
Частота кадров : 23,976 кадра/сек
Цветовое пространство : YUV
Субдискретизация насыщенности : 4:2:0
Битовая глубина : 8 бит
Тип развёртки : Прогрессивная
Метод сжатия : С потерями
Бит/(Пиксели*Кадры) : 0.321
Размер потока : 1,25 Гбайт (91%)
Библиотека кодирования : XviD 73
Аудио
Идентификатор : 1
Формат : AC-3
Формат/Информация : Audio Coding 3
Расширение режима : CM (complete main)
Параметр Endianness формата : Big
Идентификатор кодека : 2000
Продолжительность : 1 ч. 24 м.
Вид битрейта : Постоянный
Битрейт : 192 Кбит/сек
Каналы : 2 канала
Расположение каналов : Front: L R
Частота : 48,0 КГц
Битовая глубина : 16 бит
Метод сжатия : С потерями
Размер потока : 116 Мбайт (8%)
Выравнивание : Разделение по промежуткам
Продолжительность промежутка : 42 мс. (1,00 видеокадр)
Время предзагрузки промежутка : 500 мс.

Скриншот c названием фильма

Скриншоты




009.No1.avi.torrent
Torrent: Registered [ 2015-01-25 08:39 ]

Download .torrent

Download

14 KB

Status: checked
Completed: 1 times
Size: 1.36 GB
 


Last edited by Faer on 2015-01-25 08:47; edited 2 times in total
[Profile] [PM]

Faer ®

Gender: Male

Longevity: 5 years 8 months

Posts: 456

Post 25-Jan-2015 08:40 (after 44 seconds)

[Quote]

В комментарии призывается Трамвай-фильм, для разгромного отзыва.
[Profile] [PM]

Трамвай-фильм

Gender: Male

Longevity: 6 years 1 month

Posts: 1864

Location: Россия

Post 25-Jan-2015 12:01 (after 3 hours)

[Quote]

Если вы на киборга 009 намекаете? А что взять - корейцы вообще плаигаторы, судя по иероглифам на обложке - фильм корейский


Last edited by Трамвай-фильм on 2019-02-20 21:39; edited 1 time in total
[Profile] [PM]

Faer ®

Gender: Male

Longevity: 5 years 8 months

Posts: 456

Post 25-Jan-2015 12:05 (after 4 minutes)

[Quote]

9001Если вы на киборга 009 намекаете? А что взять - корейцы вообще плагиаторы, судя по иероглифам на обложке - фильм корейский
Японский определённо.
[Profile] [PM]

Трамвай-фильм

Gender: Male

Longevity: 6 years 1 month

Posts: 1864

Location: Россия

Post 26-Jan-2015 19:32 (after 1 day 7 hours)

[Quote]

иероглифы чисто корейские, хотя может только постер такой. По речи можно определить на каком языке говорят.
[Profile] [PM]
Display posts:    
Reply to topic

Current time is: 30-Sep 23:58

All times are UTC + 3



You cannot post new topics in this forum
You cannot reply to topics in this forum
You cannot edit your posts in this forum
You cannot delete your posts in this forum
You cannot vote in polls in this forum
You cannot attach files in this forum
You can download files in this forum