009-1: Конец начала / 009 No 1: The End of the Beginning (Койти Сакамото) [2013, Япония, фантастика, боевик, HDRip] (ЛД : DeadSno & den904)

Ответить на тему
 
Автор Сообщение

Faer ®

Пол: Мужской

Стаж: 4 года 1 месяц

Сообщений: 341

Откуда: Сербия

Создавать темы 25-Янв-2015 09:09

[Цитировать]

009-1: Конец начала / 009 No 1: The End of the Beginning
Страна: Япония
Жанр: фантастика, боевик
Год выпуска: 2013
Продолжительность: 01:24:14
Перевод: Любительский (двухголосый) _ DeadSno & den904
Режиссер: Койти Сакамото
В ролях: Mami Abe, Рёхеи Абе, Санаэ Хитоми, Хиротаро Хонда, Mao Ichimichi, Маюко Иваса, Minehiro Kinomoto, Шизука Мидорикава, Нао Нагасава, Ayumi Shimozono
Описание: История разворачивается в будущем. Мир разделён на 2 блока: Западный и Восточный, между которыми ведётся холодная война. Милен — шпионка-киборг 009-1 из Западного блока. Она тайно пробирается в страну J (пограничная область между двумя блоками), чтобы разоблачить торговцев людьми. В ходе выполнения своей миссии она знакомится с парнем по имени Крис, который рассказывает ей важную информацию. Милен заканчивает миссию, но Криса забыть не может…
Качество видео: HDRip
Формат видео: AVI
Видео: XviD, 720x384, 1.85:1, 23.976fps, 2125 Кбит/с
Аудио: AC3, 48.0 КГц, 192 Кбит/с, стерео


MediaInfo

Формат : AVI
Формат/Информация : Audio Video Interleave
Размер файла : 1,37 Гбайт
Продолжительность : 1 ч. 24 м.
Общий поток : 2326 Кбит/сек
Программа кодирования : VirtualDubMod 1.5.10.3 | www.virtualdub-fr.org || (build 2550/release)
Библиотека кодирования : VirtualDubMod build 2550/release
Видео
Идентификатор : 0
Формат : MPEG-4 Visual
Профиль формата : Advanced Simple@L5
Параметр BVOP формата : 1
Параметр QPel формата : Нет
Параметр GMC формата : Без точки перехода
Параметр матрицы формата : Выборочная
Идентификатор кодека : XVID
Идентификатор кодека/Подсказка : XviD
Продолжительность : 1 ч. 24 м.
Битрейт : 2125 Кбит/сек
Ширина : 720 пикселей
Высота : 384 пикселя
Соотношение сторон : 1,85:1
Частота кадров : 23,976 кадра/сек
Цветовое пространство : YUV
Субдискретизация насыщенности : 4:2:0
Битовая глубина : 8 бит
Тип развёртки : Прогрессивная
Метод сжатия : С потерями
Бит/(Пиксели*Кадры) : 0.321
Размер потока : 1,25 Гбайт (91%)
Библиотека кодирования : XviD 73
Аудио
Идентификатор : 1
Формат : AC-3
Формат/Информация : Audio Coding 3
Расширение режима : CM (complete main)
Параметр Endianness формата : Big
Идентификатор кодека : 2000
Продолжительность : 1 ч. 24 м.
Вид битрейта : Постоянный
Битрейт : 192 Кбит/сек
Каналы : 2 канала
Расположение каналов : Front: L R
Частота : 48,0 КГц
Битовая глубина : 16 бит
Метод сжатия : С потерями
Размер потока : 116 Мбайт (8%)
Выравнивание : Разделение по промежуткам
Продолжительность промежутка : 42 мс. (1,00 видеокадр)
Время предзагрузки промежутка : 500 мс.

Скриншот c названием фильма

Скриншоты






Последний раз редактировалось: Faer (2015-01-25 09:17), всего редактировалось 2 раз(а)
[Профиль] [ЛС]

Faer ®

Пол: Мужской

Стаж: 4 года 1 месяц

Сообщений: 341

Откуда: Сербия

Создавать темы 25-Янв-2015 09:10 (спустя 44 секунды)

[Цитировать]

В комментарии призывается Трамвай-фильм, для разгромного отзыва.
[Профиль] [ЛС]

Трамвай-фильм

Пол: Мужской

Стаж: 4 года 6 месяцев

Сообщений: 1406

Откуда: Россия

Создавать темы 25-Янв-2015 12:31 (спустя 3 часа)

[Цитировать]

Если вы на киборга 009 намекаете? А что взять - корейцы вообще плаигаторы, судя по иероглифам на обложке - фильм корейский


Последний раз редактировалось: Трамвай-фильм (2019-02-20 22:09), всего редактировалось 1 раз
[Профиль] [ЛС]

Faer ®

Пол: Мужской

Стаж: 4 года 1 месяц

Сообщений: 341

Откуда: Сербия

Создавать темы 25-Янв-2015 12:35 (спустя 4 минуты)

[Цитировать]

9001Если вы на киборга 009 намекаете? А что взять - корейцы вообще плагиаторы, судя по иероглифам на обложке - фильм корейский
Японский определённо.
[Профиль] [ЛС]

Трамвай-фильм

Пол: Мужской

Стаж: 4 года 6 месяцев

Сообщений: 1406

Откуда: Россия

Создавать темы 26-Янв-2015 20:02 (спустя 1 день 7 часов)

[Цитировать]

иероглифы чисто корейские, хотя может только постер такой. По речи можно определить на каком языке говорят.
[Профиль] [ЛС]
Быстрый ответ

Имя:

            
Для отправки сообщений необходимо включить JavaScript
Показать сообщения:    
Ответить на тему

Текущее время: 23-Фев 08:09

Часовой пояс: UTC + 3:30



Вы не можете начинать темы
Вы можете отвечать на сообщения
Вы не можете редактировать свои сообщения
Вы не можете удалять свои сообщения
Вы не можете голосовать в опросах
Вы не можете прикреплять файлы к сообщениям
Вы не можете скачивать файлы