Пиноккио 964 / Pinocchio 964 (Шодзин Фукуи / Shozin Fukui) [1991, Япония, киберпанк, фантастика, ужасы, DVDRip] (АО : Кузнецов Сергей)

Reply to topic
 
Author Message

Faer ®

Gender: Male

Longevity: 5 years 1 month

Posts: 374

Location: Сербия

Post 17-Jan-2015 00:34

[Quote]

Пиноккио 964 / Pinocchio 964
Страна: Япония
Жанр: киберпанк, фантастика, ужасы
Год выпуска: 1991
Продолжительность: 01:37:08
Перевод: Авторский (одноголосый) Кузнецов Сергей
Cубтитры: нет
Режиссер: Шодзин Фукуи / Shozin Fukui
В ролях: Хаге Судзуки, Онн Чан, Кйоко Хара, Коцзи Лита, Раньяку Микутеи и другие
Описание: Пиноккио 964, сексуальный раб, выброшен на улицу его владельцами из-за неспособности поддерживать эрекцию. Там он знакомится с бездомной девушкой-шизофреничкой со стертой памятью, с которой у него образовывается очень странный союз.
В это же время компания, которая произвела Пиноккио, узнает о том, что он попал на улицу. Босс компании посылает трех служащих, что бы уничтожить его из-за неисправной работы, как бракованную вещь....

Качество видео: DVDRip
Формат видео: AVI
Видео: XviD, 640x464, 3:2, 29.97 fps, 810 Кбит/с
Аудио: АС3, 48.0кГц, 192 Кбит/с, стерео


MediaInfo

Общее
Полное имя : F:\Архив\Фильмы\Pinocchio 964.avi
Формат : AVI
Формат/Информация : Audio Video Interleave
Размер файла : 696 Мбайт
Продолжительность : 1 ч. 37 м.
Общий поток : 1002 Кбит/сек
Программа кодирования : VirtualDubMod 1.5.10.2 (build 2540/release)
Библиотека кодирования : VirtualDubMod build 2540/release
Видео
Идентификатор : 0
Формат : MPEG-4 Visual
Профиль формата : Advanced Simple@L5
Параметр BVOP формата : 4
Параметр QPel формата : Нет
Параметр GMC формата : Без точки перехода
Параметр матрицы формата : Default (H.263)
Идентификатор кодека : XVID
Идентификатор кодека/Подсказка : XviD
Продолжительность : 1 ч. 37 м.
Битрейт : 798 Кбит/сек
Ширина : 640 пикселей
Высота : 464 пикселя
Соотношение сторон : 3:2
Соотношение сторон в оригинале : 1,379
Частота кадров : 29,970 кадров/сек
Цветовое пространство : YUV
Субдискретизация насыщенности : 4:2:0
Битовая глубина : 8 бит
Тип развёртки : Прогрессивная
Метод сжатия : С потерями
Бит/(Пиксели*Кадры) : 0.090
Размер потока : 554 Мбайт (80%)
Библиотека кодирования : XviD 1.1.0 (UTC 2005-11-22)
Аудио
Идентификатор : 1
Формат : AC-3
Формат/Информация : Audio Coding 3
Расширение режима : CM (complete main)
Параметр Endianness формата : Big
Идентификатор кодека : 2000
Продолжительность : 1 ч. 37 м.
Вид битрейта : Постоянный
Битрейт : 192 Кбит/сек
Каналы : 2 канала
Расположение каналов : Front: L R
Частота : 48,0 КГц
Битовая глубина : 16 бит
Метод сжатия : С потерями
Задержка видео : 31 мс.
Размер потока : 133 Мбайт (19%)
Выравнивание : Разделение по промежуткам
Продолжительность промежутка : 33 мс. (1,00 видеокадр)
Время предзагрузки промежутка : 500 мс.

Скриншоты




[Profile] [PM]
Display posts:    
Reply to topic

Current time is: 18-Feb 07:50

All times are UTC + 3



You cannot post new topics in this forum
You cannot reply to topics in this forum
You cannot edit your posts in this forum
You cannot delete your posts in this forum
You cannot vote in polls in this forum
You cannot attach files in this forum
You cannot download files in this forum