Приключения мальчика с электрическим столбом / Прекрасный аналоговый мир / Denchu Kozo no boken (Шинья Цукамото) [1987, Япония, комедия, ужасы, фантастика, DVDRip] (ЛО : Гундос) (СТ) (Sub Rus)

Reply to topic
DL-List and Torrent activity
Size:  720 MB   |    Registered:  5 years 10 months   |    Completed:  2 times

Seeder not seen: 5 years 1 month

 
   
 
 
 
Author Message

Faer ®

Gender: Male

Longevity: 5 years 10 months

Posts: 496

Post 17-Jan-2015 00:06

[Quote]

Приключения мальчика с электрическим столбом / Прекрасный аналоговый мир / Denchu Kozo no boken
Страна: Япония
Жанр: комедия, ужасы, фантастика
Год выпуска: 1987
Продолжительность: 00:45:02
Перевод: Любительский (одноголосый) _ Гундос
Перевод 2: Субтитры
Cубтитры: русские
Режиссер: Шинья Цукамото
В ролях: Шинья Цукамото, Кеи Фудзивара, Томорово Тагучи, Нобу Канаока
Описание: Низкотехнологичный научно-фантастический фильм, в котором мальчик, у которого на спине «растет» электрод, сражается с силами зла, чтобы спасти человечество. Мальчик случайно попадает в будущее, где вампир плетет заговор, чтобы погрузить землю в полную тьму. Сможет ли мальчик излучать свет из электрода на спине?
Качество видео: DVDRip
Формат видео: MKV
Видео: XviD, 688х528, 4:3, 25fps, 1933 Кбит/с
Аудио: (русская) MP3, 48.0кГц, 128 Кбит/с, стерео
Аудио 2: (японская) MP3, 48.0кГц, 128 Кбит/с, стерео
Формат субтитров: softsub (SRT)


Пример субтитров

194
00:27:44,687 --> 00:27:50,478
Всякий раз, кoгда в мире наступает
кризис...
195
00:27:50,567 --> 00:27:53,798
...рoждается мальчик с электрическим
стoлбoм.
196
00:27:53,887 --> 00:27:59,405
Мальчик с электрическим стoлбoм -
мессия, oсвещающий свoю эпoху...
197
00:27:59,487 --> 00:28:02,843
...прoкладывая дoрoгу следyющемy
пришествию.
198
00:28:02,927 --> 00:28:10,720
Мы - герoи, спасающие челoвечествo
на прoтяжении всей егo истoрии!
199
00:28:10,807 --> 00:28:12,479
Герoи?..
200
00:28:12,567 --> 00:28:17,163
Прибыв из периoда Эдo, я не смoг
найти здесь мальчика сo электрическим
стoлбoм.
201
00:28:17,247 --> 00:28:20,842
Тoгда я начал искать егo вo всех
временах.
202
00:28:20,967 --> 00:28:24,562
И накoнец нашёл тебя, вкoнец
oтупевшегo, 25 лет назад.
203
00:28:24,687 --> 00:28:28,202
Чтo ж этo за идиoт, пoдyмал я?
204
00:28:28,287 --> 00:28:31,484
Как же этoт малец сo стoлбoм смoжет
спасти мир?
205
00:28:31,567 --> 00:28:35,003
Вставай! Прoснись, мальчик
с электрическим стoлбoм!

MediaInfo

Общее
Уникальный идентификатор : 190518490386008330527399358647432299236 (0x8F5486CC98907C1E89225536D74AC2E4)
Полное имя : F:\Архив\Фильмы\Denchu Kozo no Boken.mkv
Формат : Matroska
Версия формата : Version 4 / Version 2
Размер файла : 720 Мбайт
Продолжительность : 45 м.
Общий поток : 2234 Кбит/сек
Дата кодирования : UTC 2015-01-16 20:44:59
Программа кодирования : mkvmerge v6.8.0 ('Theme for Great Cities') 32bit built on Mar 2 2014 21:27:07
Библиотека кодирования : libebml v1.3.0 + libmatroska v1.4.1
Видео
Идентификатор : 1
Формат : MPEG-4 Visual
Профиль формата : Advanced Simple@L5
Параметр BVOP формата : 1
Параметр QPel формата : Нет
Параметр GMC формата : Без точки перехода
Параметр матрицы формата : Default (H.263)
Идентификатор кодека : V_MS/VFW/FOURCC / XVID
Идентификатор кодека/Подсказка : XviD
Продолжительность : 45 м.
Битрейт : 1933 Кбит/сек
Ширина : 688 пикселей
Высота : 528 пикселей
Соотношение сторон : 4:3
Режим частоты кадров : Постоянный
Частота кадров : 25,000 кадров/сек
Цветовое пространство : YUV
Субдискретизация насыщенности : 4:2:0
Битовая глубина : 8 бит
Тип развёртки : Прогрессивная
Метод сжатия : С потерями
Бит/(Пиксели*Кадры) : 0.213
Размер потока : 623 Мбайт (87%)
Библиотека кодирования : XviD 1.2.1 (UTC 2008-12-04)
Default : Да
Forced : Нет
Аудио #1
Идентификатор : 2
Формат : MPEG Audio
Версия формата : Version 1
Профиль формата : Layer 3
Идентификатор кодека : A_MPEG/L3
Идентификатор кодека/Подсказка : MP3
Продолжительность : 45 м.
Вид битрейта : Постоянный
Битрейт : 128 Кбит/сек
Каналы : 2 канала
Частота : 48,0 КГц
Метод сжатия : С потерями
Размер потока : 41,2 Мбайт (6%)
Default : Да
Forced : Нет
Аудио #2
Идентификатор : 3
Формат : MPEG Audio
Версия формата : Version 1
Профиль формата : Layer 3
Режим : Joint stereo
Расширение режима : MS Stereo
Идентификатор кодека : A_MPEG/L3
Идентификатор кодека/Подсказка : MP3
Продолжительность : 45 м.
Вид битрейта : Постоянный
Битрейт : 128 Кбит/сек
Каналы : 2 канала
Частота : 48,0 КГц
Метод сжатия : С потерями
Размер потока : 41,2 Мбайт (6%)
Default : Нет
Forced : Нет
Текст
Идентификатор : 4
Формат : UTF-8
Идентификатор кодека : S_TEXT/UTF8
Идентификатор кодека/Информация : UTF-8 Plain Text
Default : Да
Forced : Нет

Скриншоты




Denchu Kozo no Boken.mkv.torrent
Torrent: Registered [ 2015-01-17 00:06 ]

Download .torrent

Download

14 KB

Status: * not checked
Completed: 2 times
Size: 720 MB
 
[Profile] [PM]

Трамвай-фильм

Gender: Male

Longevity: 6 years 3 months

Posts: 1881

Location: Россия

Post 17-Jan-2015 22:45 (after 22 hours)

[Quote]

Тут широкий простор для киноделов. предлагаю: машьчик с фонарным столбом, девочка с нефтяной вышкой, бабушка с телемачтой.
[Profile] [PM]
Display posts:    
Reply to topic

Current time is: 28-Nov 23:27

All times are UTC + 3



You cannot post new topics in this forum
You cannot reply to topics in this forum
You cannot edit your posts in this forum
You cannot delete your posts in this forum
You cannot vote in polls in this forum
You cannot attach files in this forum
You can download files in this forum