Парни двадцатого века 1 / 20th Century Boys 1 (Юкихико Цуцуми) [2008, Япония, фантастика, детектив, приключения, BDRip-720p] [Расширенная версия для BD-издания] 2xЛО, СТ

Reply to topic
 
Author Message

Faer ®

Gender: Male

Longevity: 4 years 6 months

Posts: 344

Location: Сербия

Post 14-Jan-2015 18:45

[Quote]

Парни двадцатого века / 20th Century Boys / Расширенная версия для BD-издания
Страна: Япония
Жанр: фантастика, детектив, приключения
Год выпуска: 2008
Продолжительность: 02:22:15
Перевод 1: Любительский (одноголосый)
Перевод 2: Любительский (одноголосый) den904 (одна из первых озвучек)
Перевод 3: Субтитры
Режиссер: Юкихико Цуцуми
В ролях: Тошиаки Карасава, Эцуси Тоёкава, Такако Токива, Теруюки Кагава, Хироюки Миясако, Катсухиса Намасе, Фумиё Кохината, Кураносуке Сасаки
Описание: Все мальчишки в детстве мечтали спасать мир. Потом вырастали, и забывали об этом. Но что если ваши детские фантазии сбудутся? Вы всё ещё готовы сражаться со злом?
Доп. информация: Чем отличается от существующих в инэте раздач:
1. BDRip, а не DVDRip. Качество соответственно выше.
2. Голос НЕ den904!

Качество: DVDRip-720p
Формат: MKV
Видео: x264, 1278 кбит/с, 1280x688, 23.976 к/с,
Аудио 1: Русский (AC3, 2 ch, 192 Кбит/с)
Аудио 2: Русский (AC3, 2 ch, 192 Кбит/с)
Аудио 3: Японский (DTS, 6 ch, 1510 Кбит/с)
Субтитры : Русские (), английские
Работа над релизом:





Пример старой озвучки ден904 ab :

MediaInfo

Общее
Уникальный идентификатор : 239218877334332868344258120543363956772 (0xB3F7E141EB2D0CD7B268E128C1508024)
Полное имя : F:\20th Century Boys 1 2008.x264.BDRip.720p.2xRus.kosmoaelita.mkv
Формат : Matroska
Версия формата : Version 4 / Version 2
Размер файла : 6,28 Гбайт
Продолжительность : 2 ч. 22 м.
Общий поток : 6321 Кбит/сек
Название фильма : 20th Century Boys / 2008 / kosmoaelita
Дата кодирования : UTC 2015-01-16 02:21:06
Программа кодирования : mkvmerge v6.6.0 ('The Edge Of The In Between') built on Dec 1 2013 17:55:00
Библиотека кодирования : libebml v1.3.0 + libmatroska v1.4.1
Видео
Идентификатор : 1
Формат : AVC
Формат/Информация : Advanced Video Codec
Профиль формата : High@L4.1
Параметр CABAC формата : Да
Параметр ReFrames формата : 6 кадров
Идентификатор кодека : V_MPEG4/ISO/AVC
Продолжительность : 2 ч. 22 м.
Битрейт : 4423 Кбит/сек
Ширина : 1280 пикселей
Высота : 688 пикселей
Соотношение сторон : 1,85:1
Режим частоты кадров : Постоянный
Частота кадров : 23,976 кадра/сек
Цветовое пространство : YUV
Субдискретизация насыщенности : 4:2:0
Битовая глубина : 8 бит
Тип развёртки : Прогрессивная
Бит/(Пиксели*Кадры) : 0.209
Размер потока : 4,27 Гбайт (68%)
Заголовок : kosmoaelita
Библиотека кодирования : x264 core 67 r1129M c109c8e
Настройки программы : cabac=1 / ref=6 / deblock=1:-3:-3 / analyse=0x3:0x113 / me=umh / subme=7 / psy_rd=1.4:0.6 / mixed_ref=1 / me_range=28 / chroma_me=1 / trellis=1 / 8x8dct=1 / cqm=2 / deadzone=21,11 / chroma_qp_offset=-4 / threads=6 / nr=0 / decimate=1 / mbaff=0 / bframes=3 / b_pyramid=1 / b_adapt=1 / b_bias=0 / direct=3 / wpredb=1 / keyint=250 / keyint_min=25 / scenecut=40 / rc=2pass / bitrate=4423 / ratetol=1.0 / qcomp=0.60 / qpmin=10 / qpmax=51 / qpstep=4 / cplxblur=20.0 / qblur=0.5 / ip_ratio=1.40 / pb_ratio=1.30 / aq=1:0.90
Default : Да
Forced : Нет
Аудио #1
Идентификатор : 2
Формат : AC-3
Формат/Информация : Audio Coding 3
Расширение режима : CM (complete main)
Параметр Endianness формата : Big
Идентификатор кодека : A_AC3
Продолжительность : 2 ч. 22 м.
Вид битрейта : Постоянный
Битрейт : 192 Кбит/сек
Каналы : 2 канала
Расположение каналов : Front: L R
Частота : 48,0 КГц
Битовая глубина : 16 бит
Метод сжатия : С потерями
Размер потока : 195 Мбайт (3%)
Заголовок : Русский ЛО
Язык : Russian
Default : Да
Forced : Нет
Аудио #2
Идентификатор : 3
Формат : AC-3
Формат/Информация : Audio Coding 3
Расширение режима : CM (complete main)
Параметр Endianness формата : Big
Идентификатор кодека : A_AC3
Продолжительность : 2 ч. 22 м.
Вид битрейта : Постоянный
Битрейт : 192 Кбит/сек
Каналы : 2 канала
Расположение каналов : Front: L R
Частота : 48,0 КГц
Битовая глубина : 16 бит
Метод сжатия : С потерями
Размер потока : 195 Мбайт (3%)
Заголовок : Русский ЛО (den904 - old) - одна из первых озвучек den904
Язык : Russian
Default : Нет
Forced : Нет
Аудио #3
Идентификатор : 4
Формат : DTS
Формат/Информация : Digital Theater Systems
Режим : 16
Параметр Endianness формата : Big
Идентификатор кодека : A_DTS
Продолжительность : 2 ч. 22 м.
Вид битрейта : Постоянный
Битрейт : 1509 Кбит/сек
Каналы : 6 каналов
Расположение каналов : Front: L C R, Side: L R, LFE
Частота : 48,0 КГц
Битовая глубина : 24 бит
Метод сжатия : С потерями
Размер потока : 1,50 Гбайт (24%)
Заголовок : DTS 5.1 1536k
Язык : Japanese
Default : Нет
Forced : Нет
Текст #1
Идентификатор : 5
Формат : VobSub
Режим смешивания : zlib
Идентификатор кодека : S_VOBSUB
Идентификатор кодека/Информация : The same subtitle format used on DVDs
Язык : Russian
Default : Да
Forced : Нет
Текст #2
Идентификатор : 6
Формат : UTF-8
Идентификатор кодека : S_TEXT/UTF8
Идентификатор кодека/Информация : UTF-8 Plain Text
Язык : Russian
Default : Нет
Forced : Нет
Текст #3
Идентификатор : 7
Формат : ASS
Идентификатор кодека : S_TEXT/ASS
Идентификатор кодека/Информация : Advanced Sub Station Alpha
Метод сжатия : Без потерь
Язык : English
Default : Нет
Forced : Нет

Скриншот c названием фильма

Скриншоты




Скринлист

cd Рип дополнительно залит на mail.ru cd2
[Profile] [PM]

Faer ®

Gender: Male

Longevity: 4 years 6 months

Posts: 344

Location: Сербия

Post 14-Jan-2015 18:46 (after 1 minute)

[Quote]

Сравнения персонажей манги и фильма

И ещё

[Profile] [PM]

admin

Gender: Male

Longevity: 6 years 10 months

Posts: 4725

Location: Україна

Post 16-Jan-2015 05:27 (after 1 day 10 hours)

[Quote]

Перезалито.
Японская дорожка заменена на многоканальную
Добавлена русская озвучка от den904 (одна из первых озвучек - раритет!) ab
[Profile] [PM]

den904

Gender: Male

Longevity: 6 years 1 month

Posts: 185

Post 16-Jan-2015 10:31 (after 5 hours)

[Quote]

О боже))) добавили этот стыд))))
[Profile] [PM]

admin

Gender: Male

Longevity: 6 years 10 months

Posts: 4725

Location: Україна

Post 16-Jan-2015 10:49 (after 18 minutes)

[Quote]

Там перегруз сильнейший. Пусть будет для музейной коллекции ab
[Profile] [PM]

Faer ®

Gender: Male

Longevity: 4 years 6 months

Posts: 344

Location: Сербия

Post 16-Jan-2015 13:28 (after 2 hours 38 minutes)

[Quote]

8800Перезалито.
Добавлена русская озвучка от den904 (одна из первых озвучек - раритет!) ab
8803О боже))) добавили этот стыд))))
Да да, я потому и профинансировал озвучку альтернативную))
Кстати, раз уж такое дело, может запилим 1080p ? А то я такое качество только у азиатов видел. А в СНГ-сегменте одни DVD-рипы.
[Profile] [PM]

admin

Gender: Male

Longevity: 6 years 10 months

Posts: 4725

Location: Україна

Post 16-Jan-2015 14:05 (after 37 minutes)

[Quote]

Видел в юзенете рип на 1080р - могу скачать
[Profile] [PM]

Faer ®

Gender: Male

Longevity: 4 years 6 months

Posts: 344

Location: Сербия

Post 16-Jan-2015 14:17 (after 11 minutes)

[Quote]

8806Видел в юзенете рип на 1080р - могу скачать
Отлично! Будет самая крутая раздача, с топовым качеством.
Кстати, 1080 есть ещё и на bakabt. Там-же 2 и 3 фильмы в BluRay 720.
[Profile] [PM]

den904

Gender: Male

Longevity: 6 years 1 month

Posts: 185

Post 16-Jan-2015 14:47 (after 30 minutes)

[Quote]

третью в 1080 видел
[Profile] [PM]

Трамвай-фильм

Gender: Male

Longevity: 4 years 11 months

Posts: 1466

Location: Россия

Post 16-Jan-2015 17:34 (after 2 hours 46 minutes)

[Quote]

да, звук как в моих ранних переводах, слишком громок.
8803добавили этот стыд))))
Да ладно, я сейчас тоже свои ранние труды 2008-2009 смотрю и ужасаюсь. И озвучка, и даже местами ляпы в переводе
[Profile] [PM]

den904

Gender: Male

Longevity: 6 years 1 month

Posts: 185

Post 26-Jan-2015 11:22 (after 9 days)

[Quote]

я вот что то японскую дорогу слушал, это точно японский? не кантонский?
[Profile] [PM]

Faer ®

Gender: Male

Longevity: 4 years 6 months

Posts: 344

Location: Сербия

Post 26-Jan-2015 11:29 (after 6 minutes)

[Quote]

9022я вот что то японскую дорогу слушал, это точно японский? не кантонский?
Японский.
*Я видел кантонскую дорогу только на 3 фильм.
[Profile] [PM]
Display posts:    
Reply to topic

Current time is: 18-Jul 16:27

All times are UTC + 3



You cannot post new topics in this forum
You cannot reply to topics in this forum
You cannot edit your posts in this forum
You cannot delete your posts in this forum
You cannot vote in polls in this forum
You cannot attach files in this forum
You cannot download files in this forum