Бункер последнего выстрела / Le Bunker de la derniere rafale (Жан-Пьер Жене, Марк Каро) [1981, Франция, фантастика, артхаус, DVDRip]

Reply to topic
DL-List and Torrent activity
Size:  291 MB   |    Registered:  5 years 2 months   |    Completed:  3 times

Seeder not seen: 2 years 7 months

 
   
 
 
 
Author Message

Faer ®

Gender: Male

Longevity: 5 years 2 months

Posts: 414

Location: Сербия

Post 14-Jan-2015 17:46

[Quote]

Бункер последнего выстрела / Le Bunker de la derniere rafale
Страна: Франция
Жанр: фантастика, артхаус
Год выпуска: 1981
Продолжительность: 00:25:33
Перевод: Не требуется
Режиссер: Жан-Пьер Жене, Марк Каро
В ролях: Жан Мари Де Бюшше, Марк Каро, Патрик Сьюззи, Жиль Адри, Спот, Винсент Фернио, Тьерри Форни, Зорин, Эрик Каро, Жан-Пьер Жене, Бруно Ричард, Херв Ди Роза
Описание: Сюрреалистическая абсурдистская милитаристская фантазия. Смысл происходящего в фильме улавливается приблизительно. В бетонных катакомбах сидят некие военные, по некоторым признакам похожие на фашистов: форма, нашивки на воротничках, хотя на самом деле это персонажи более универсальные. Обитают в подземелье несколько простых солдат, пара суровых типов, напоминающих эсэсовцев, хирург-садист и человек в инвалидной коляске - видимо, начальник. Сюжет смонтирован из нескольких событий: ловля жуков, чтобы убивать их током, опыты над людьми, вылазка за пределы убежища, тревога и таинственная поломка, которая приводит к тому, что явно очень важный счётчик начинает обратный отсчёт...
Качество видео: DVDRip
Формат видео: AVI
Видео: DivX 5, 640x368, 1.739, 25 fps, 1134 Кбит/с
Аудио: АС3, 48.0 КГц, 448 Кбит/с, 6 ch


MediaInfo

Общее
Полное имя : F:\Архив\Фильмы\Le Bunker de la derniere rafale.avi
Формат : AVI
Формат/Информация : Audio Video Interleave
Размер файла : 291 Мбайт
Продолжительность : 25 м.
Общий поток : 1591 Кбит/сек
Программа кодирования : VirtualDubMod 1.5.1.1a (build 1639/release)
Библиотека кодирования : VirtualDubMod build 1639/release
Видео
Идентификатор : 0
Формат : MPEG-4 Visual
Параметр BVOP формата : 1
Параметр QPel формата : Нет
Параметр GMC формата : Без точки перехода
Параметр матрицы формата : Default (H.263)
Режим смешивания : Сжатый битовый поток
Идентификатор кодека : DX50
Идентификатор кодека/Подсказка : DivX 5
Продолжительность : 25 м.
Битрейт : 1134 Кбит/сек
Ширина : 640 пикселей
Высота : 368 пикселей
Соотношение сторон : 1,739
Частота кадров : 25,000 кадров/сек
Цветовое пространство : YUV
Субдискретизация насыщенности : 4:2:0
Битовая глубина : 8 бит
Тип развёртки : Прогрессивная
Метод сжатия : С потерями
Бит/(Пиксели*Кадры) : 0.193
Размер потока : 207 Мбайт (71%)
Библиотека кодирования : DivX 5.1.0 (UTC 2003-09-02)
Аудио
Идентификатор : 1
Формат : AC-3
Формат/Информация : Audio Coding 3
Расширение режима : CM (complete main)
Параметр Endianness формата : Big
Идентификатор кодека : 2000
Продолжительность : 25 м.
Вид битрейта : Постоянный
Битрейт : 448 Кбит/сек
Каналы : 6 каналов
Расположение каналов : Front: L C R, Side: L R, LFE
Частота : 48,0 КГц
Битовая глубина : 16 бит
Метод сжатия : С потерями
Размер потока : 81,9 Мбайт (28%)
Выравнивание : Разделение по промежуткам
Продолжительность промежутка : 40 мс. (1,00 видеокадр)
Время предзагрузки промежутка : 500 мс.

Скриншоты




Скринлист

cd Рип дополнительно залит на mail.ru cd2
Le Bunker de la derniere rafale.avi.torrent
Torrent: Registered [ 2015-01-14 17:46 ]

Download .torrent

Download

12 KB

Status: checked
Completed: 3 times
Size: 291 MB
 
[Profile] [PM]

Guest

Gender: Unknown

Post 14-Jan-2015 21:06 (after 3 hours)

[Quote]

Жаль, что оба режиссёра сдулись, а дуэтом у них всё отлично получилось.)
 

Susanin

Gender: Male

Longevity: 5 years 11 months

Posts: 842

Post 02-Oct-2017 14:52 (after 2 years 8 months)

[Quote]

Шикарно. Только сейчас время выкроил это посмотреть. Интересно перекликается с "Bunker Palace Hotel".
[Profile] [PM]
Display posts:    
Reply to topic

Current time is: 28-Mar 12:17

All times are UTC + 3



You cannot post new topics in this forum
You cannot reply to topics in this forum
You cannot edit your posts in this forum
You cannot delete your posts in this forum
You cannot vote in polls in this forum
You cannot attach files in this forum
You can download files in this forum