Космические дети / The Space Children (Джек Арнольд) [1958 г., Фантастика, приключения, притча, DVDRip] АО (Трамвай-фильм)

Reply to topic
DL-List and Torrent activity
Size:  874 MB   |    Registered:  4 years 2 months   |    Completed:  7 times

Seeder not seen: 2 days 12 hours

 
   
 
 
 
Author Message

admin ®

Gender: Male

Longevity: 7 years 3 months

Posts: 4812

Post 17-Sep-2012 01:10

[Quote]

Космические дети / The Space Children
Год выпуска: 1958
Страна: США, Paramount Pictures
Жанр: Фантастика, приключения, притча
Продолжительность: 01:08:40
Перевод: Любительский (одноголосый) Трамвай-фильм
Режиссер: Джек Арнольд
В ролях: Майкл Рэй, Адам Уильямс, Пэгги Вэббэр, Джонни Вэшбрук, Джеки Кугэн, Ричард Шеннон, Рэймонд Бэйли, Сэнди Десчер, Ларри Пеннелл, Питер Болдуин
Описание: Ретрофантастика.Бад и Кен Бpюстеры - двое детей, которые со своим отцом инженером-ракетчиком переезжают на отдаленный полигон, где готовится к пуску американское оружие возмездия "Громовержец". Однако по приезду на место детей начинают преследовать странные события, ведомые только им самим: слышен странный звук, есть ощущения, что с неба спускается нечто, а когда они с другими детьми ученых заходят в близлежащую пещеры, то находят там такое, что в корне меняет их самих, и череда загадочных инцидентов только набирает обороты...
Качество: DVDRip
Формат: MKV
Видео: x264, 1361 Кбит/с, 720х536 crf=19
Аудио 1: Русский АО (Трамвай-фильм) (AC3, 2 ch, 192 Кбит/с)
Аудио 2: Английский (AC3, 2 ch, 192 Кбит/с)
Работа над релизом:
Видео найдено на Синемагеддоне.
Рип с DVD5 и наложение чистого русского голоса - sasha20072007, качество crf=19.
Озвучка и перевод - "Трамвай фильм.



Пример нового русского перевода

Релиз

Видео найдено на Синемагеддоне.
Рип с DVD5 и наложение чистого русского голоса - sasha20072007, качество crf=19.
Озвучка и перевод - "Трамвай фильм.
Сравнение с предыдущей версией на трекере
Сравнение рипа и оригин. ДВД5
Для удаления и добавления дорожек в mkv используйте бесплатную mkvmerge GUI 5.80

MediaInfo

Общее
Уникальный идентификатор : 230790359187481276195934012181980933693 (0xADA09B3AA3820A5EA206FF02C1886E3D)
Полное имя : H:\1111\The Space Children 1958.x264.DVDRip.New.kosmoaelita.mkv
Формат : Matroska
Версия формата : Version 4 / Version 2
Размер файла : 874 Мбайт
Продолжительность : 1 ч. 8 м.
Общий поток : 1780 Кбит/сек
Название фильма : Космические дети / The Space Children / 1958 / rip by sasha20072007
Дата кодирования : UTC 2015-09-14 20:01:07
Программа кодирования : mkvmerge v6.6.0 ('The Edge Of The In Between') built on Dec 1 2013 17:55:00
Библиотека кодирования : libebml v1.3.0 + libmatroska v1.4.1
Видео
Идентификатор : 1
Формат : AVC
Формат/Информация : Advanced Video Codec
Профиль формата : High@L4.1
Параметр CABAC формата : Да
Параметр ReFrames формата : 16 кадров
Идентификатор кодека : V_MPEG4/ISO/AVC
Продолжительность : 1 ч. 8 м.
Битрейт : 1361 Кбит/сек
Ширина : 720 пикселей
Высота : 536 пикселей
Соотношение сторон : 4:3
Режим частоты кадров : Постоянный
Частота кадров : 23,976 кадра/сек
Цветовое пространство : YUV
Субдискретизация насыщенности : 4:2:0
Битовая глубина : 8 бит
Тип развёртки : Прогрессивная
Бит/(Пиксели*Кадры) : 0.147
Размер потока : 668 Мбайт (76%)
Библиотека кодирования : x264 core 120 r2164 da19765
Настройки программы : cabac=1 / ref=16 / deblock=1:-2:-2 / analyse=0x3:0x133 / me=umh / subme=11 / psy=1 / psy_rd=1.00:0.25 / mixed_ref=1 / me_range=24 / chroma_me=1 / trellis=2 / 8x8dct=1 / cqm=0 / deadzone=6,6 / fast_pskip=1 / chroma_qp_offset=-4 / threads=12 / sliced_threads=0 / nr=0 / decimate=0 / interlaced=0 / bluray_compat=0 / constrained_intra=0 / bframes=8 / b_pyramid=2 / b_adapt=2 / b_bias=0 / direct=3 / weightb=1 / open_gop=0 / weightp=2 / keyint=220 / keyint_min=22 / scenecut=40 / intra_refresh=0 / rc_lookahead=60 / rc=crf / mbtree=1 / crf=19.0 / qcomp=0.80 / qpmin=0 / qpmax=69 / qpstep=4 / vbv_maxrate=17500 / vbv_bufsize=14000 / crf_max=0.0 / nal_hrd=none / ip_ratio=1.11 / aq=1:0.50
Default : Да
Forced : Нет
Аудио #1
Идентификатор : 2
Формат : AC-3
Формат/Информация : Audio Coding 3
Расширение режима : CM (complete main)
Параметр Endianness формата : Big
Идентификатор кодека : A_AC3
Продолжительность : 1 ч. 8 м.
Вид битрейта : Постоянный
Битрейт : 192 Кбит/сек
Каналы : 2 канала
Расположение каналов : Front: L R
Частота : 48,0 КГц
Битовая глубина : 16 бит
Метод сжатия : С потерями
Размер потока : 94,3 Мбайт (11%)
Заголовок : Русский (Трамвай-фильм) Новая версия перевода на слух с англ, 2015г
Язык : Russian
Default : Да
Forced : Нет
Аудио #2
Идентификатор : 3
Формат : AC-3
Формат/Информация : Audio Coding 3
Расширение режима : CM (complete main)
Параметр Endianness формата : Big
Идентификатор кодека : A_AC3
Продолжительность : 1 ч. 8 м.
Вид битрейта : Постоянный
Битрейт : 192 Кбит/сек
Каналы : 2 канала
Расположение каналов : Front: L R
Частота : 48,0 КГц
Битовая глубина : 16 бит
Метод сжатия : С потерями
Размер потока : 94,3 Мбайт (11%)
Язык : English
Default : Нет
Forced : Нет

Скриншоты


Скринлист

cd Рип дополнительно залит на ОБЛАКО cd2
The Space Children 1958.x264.DVDRip.New.kosmoaelita.mkv.torrent
Torrent: Registered [ 2015-09-14 23:10 ]

Download .torrent

Download

34 KB

Status: checked
Completed: 7 times
Size: 874 MB
 


Last edited by admin on 2015-09-14 23:30; edited 7 times in total
[Profile] [PM]

Трамвай-фильм

Gender: Male

Longevity: 5 years 4 months

Posts: 1700

Location: Россия

Post 13-Sep-2015 16:05 (after 2 years 11 months)

[Quote]

Обновите перевод: space.children
Очищен звук, подправлены мелкие ошибки.
[Profile] [PM]

Трамвай-фильм

Gender: Male

Longevity: 5 years 4 months

Posts: 1700

Location: Россия

Post 14-Sep-2015 22:27 (after 1 day 6 hours)

[Quote]

Со своей старой брал. Возможно урезана заставка. Я подгонять не тороплю: как время будет.
[Profile] [PM]

admin ®

Gender: Male

Longevity: 7 years 3 months

Posts: 4812

Post 14-Sep-2015 22:59 (after 31 minute)

[Quote]

Перезалито с новым переводом
[Profile] [PM]

Трамвай-фильм

Gender: Male

Longevity: 5 years 4 months

Posts: 1700

Location: Россия

Post 15-Sep-2015 19:55 (after 20 hours)

[Quote]

12000Перезалито с новым переводом
спасибки.
[Profile] [PM]
Quick Reply

Name:

            
Heads necessary to send messages to enable JavaScript
Display posts:    
Reply to topic

Current time is: 09-Dec 03:51

All times are UTC + 3



You can post new topics in this forum
You can reply to topics in this forum
You cannot edit your posts in this forum
You cannot delete your posts in this forum
You cannot vote in polls in this forum
You cannot attach files in this forum
You can download files in this forum