Мир Камен Райдеров / Kamen Rider World (Кацуя Ватанабэ) [1994, Япония, фильм действия, DVDRip] (СТ : LaMan) (Sub Rus)

Reply to topic
 
Author Message

Faer ®

Gender: Male

Longevity: 5 years 1 month

Posts: 390

Location: Сербия

Post 12-Jan-2015 21:27

[Quote]

Мир Камен Райдеров / Kamen Rider World
Страна: Япония
Жанр: фильм действия
Год выпуска: 1994
Продолжительность: 00:08:45
Перевод: Субтитры: LaMan [OlSkAn]
Cубтитры: русские
Режиссер: Кацуя Ватанабэ
В ролях: Масанори Дзисен, Юта Мотидзуки, Хироси Цутикадо
Описание: Камен Райдер J и Камен Райдер ZO объединяются, чтобы дать отпор новому злу, угрожающему Земле.
Доп. информация: Спецвыпуск для европейского BD-издания.
Качество видео: DVDRip
Формат видео: MKV
Видео: x264, 640x480, 4:3, 23.976, 1032 Кбит/с
Аудио: AC3, 48.0 КГц, 384 Кбит/с, стерео (японский)
Формат субтитров: softsub (SSA/ASS)
Работа над релизом:
LaMan - перевод
Mr.Faer - редактура
Полковник Зол - консультации по сеттингу

MediaInfo

Общее
Уникальный идентификатор : 233939754067592380364985368175794522340 (0xAFFF28629337B67AA3CB58EE9AE508E4)
Полное имя : C:\Users\Faer\Desktop\Kamen Rider World.mkv
Формат : Matroska
Версия формата : Version 2
Размер файла : 90,5 Мбайт
Продолжительность : 8 м. 45 с.
Общий поток : 1445 Кбит/сек
Дата кодирования : UTC 2012-03-02 06:19:27
Программа кодирования : mkvmerge v2.9.9 ('Tutu') built on Nov 25 2009 21:13:32
Библиотека кодирования : libebml v0.7.9 + libmatroska v0.8.1
Attachements : calibri.ttf
Видео
Идентификатор : 1
Формат : AVC
Формат/Информация : Advanced Video Codec
Профиль формата : High@L3.0
Параметр CABAC формата : Да
Параметр ReFrames формата : 4 кадра
Идентификатор кодека : V_MPEG4/ISO/AVC
Продолжительность : 8 м. 45 с.
Битрейт : 1032 Кбит/сек
Ширина : 640 пикселей
Высота : 480 пикселей
Соотношение сторон : 4:3
Режим частоты кадров : Постоянный
Частота кадров : 23,976 кадра/сек
Цветовое пространство : YUV
Субдискретизация насыщенности : 4:2:0
Битовая глубина : 8 бит
Тип развёртки : Прогрессивная
Бит/(Пиксели*Кадры) : 0.140
Размер потока : 64,6 Мбайт (71%)
Библиотека кодирования : x264 core 120 r2164 da19765
Настройки программы : cabac=1 / ref=3 / deblock=1:0:0 / analyse=0x3:0x113 / me=hex / subme=7 / psy=1 / psy_rd=1.00:0.00 / mixed_ref=1 / me_range=16 / chroma_me=1 / trellis=1 / 8x8dct=1 / cqm=0 / deadzone=21,11 / fast_pskip=1 / chroma_qp_offset=-2 / threads=3 / sliced_threads=0 / nr=0 / decimate=1 / interlaced=0 / bluray_compat=0 / constrained_intra=0 / bframes=3 / b_pyramid=2 / b_adapt=1 / b_bias=0 / direct=1 / weightb=1 / open_gop=0 / weightp=2 / keyint=240 / keyint_min=23 / scenecut=40 / intra_refresh=0 / rc_lookahead=40 / rc=crf / mbtree=1 / crf=24.0 / qcomp=0.60 / qpmin=0 / qpmax=69 / qpstep=4 / ip_ratio=1.40 / aq=1:1.00
Default : Нет
Forced : Нет
Аудио
Идентификатор : 2
Формат : AC-3
Формат/Информация : Audio Coding 3
Расширение режима : CM (complete main)
Параметр Endianness формата : Big
Идентификатор кодека : A_AC3
Продолжительность : 8 м. 45 с.
Вид битрейта : Постоянный
Битрейт : 384 Кбит/сек
Каналы : 2 канала
Расположение каналов : Front: L R
Частота : 48,0 КГц
Битовая глубина : 16 бит
Метод сжатия : С потерями
Размер потока : 24,0 Мбайт (27%)
Язык : Japanese
Default : Нет
Forced : Нет
Текст
Идентификатор : 3
Формат : ASS
Идентификатор кодека : S_TEXT/ASS
Идентификатор кодека/Информация : Advanced Sub Station Alpha
Метод сжатия : Без потерь
Заголовок : LaMan [OlSkAn]
Язык : Russian
Default : Да
Forced : Нет

Скриншот c названием фильма

Скриншоты



cd Рип дополнительно залит на mail.ru cd2
[Profile] [PM]
Display posts:    
Reply to topic

Current time is: 29-Feb 07:32

All times are UTC + 3



You cannot post new topics in this forum
You cannot reply to topics in this forum
You cannot edit your posts in this forum
You cannot delete your posts in this forum
You cannot vote in polls in this forum
You cannot attach files in this forum
You cannot download files in this forum