A History Of Sci-Fi Television / История научной фантастики на телевидении (1990) [VHSrip] АО (Трамвай-фильм)

Reply to topic
DL-List and Torrent activity
Size:  286 MB   |    Registered:  4 years 5 months   |    Completed:  5 times

Seeder not seen: 2 years 5 months

 
   
 
 
 
Author Message

Трамвай-фильм ®

Gender: Male

Longevity: 4 years 10 months

Posts: 1460

Location: Россия

Post 27-Dec-2014 17:45

[Quote]

A History Of Sci-Fi Television / История научной фантастики на телевидении - Год выпуска: 1990
Производство: США, Simitar Entertainment
Жанр: Фантастика, Документальный
Продолжительность: 00:30:12
Перевод: Одноголосый закадровый Трамвай-фильм
Язык: Русский
Описание фильма:
В этой телевизионной передаче будет рассказано как эволюционировала научная фантастика с 1950 года, какие сериалы стали культовыми, а какие вдохнули новое движение в развитие жанра, при этом оставшись в тени.
Качество видео: VHSRip
Формат: AVI
Качество: VHSrip
Видео: Xvid, 640x480, 25fps,1178 kbps
Звук: MP3, 44100Hz, stereo, 128 kbps, 2 канала

Дополнительно

Внимание:
1. В фильм врезаны редкие кадры с киноляпами и неудачными сценами из "Стартрека", в которых, в виду, отвратного качества звучания "закадровых реплик" возможны неточности в переводе
2. Полный список сериалов показанных в фильме представлен ниже (увы в экс-СССР почти половина его неизвестна для нас):
"Tom Corbett's Space Cadet"
"Captain Video"
"Rocky Jones, Space Ranger"
"Space Patrol"
"Flash Gordon"
"The Time Tunnel"
"Lost in Space"
"Journey to the Botton of the Sea"
"Star Trek"
"Batman"
"Kolchak, The Night Stalker"
"One Step Beyond"
"The Twilight Zone"
"The Invaders"
"Superman"
"Outer Limits"
"Night Gallery"
"The Prisoner"
"Battlestar Gallactica"
"Buck Rogers in the 25th Century"
"Logan's Run"
"Six Million Dollar Man"
"The Bionic Woman"
"Hulk"
"Wonder Woman"
3. "Хлопья Келлога", которые рекламируют Супермен и братишка с сестренкой, изначально были изобретены полоумным "врачом" Харви Келлогом, как средство от детской матсурбации.

MediaInfo

Format : AVI
Format/Info : Audio Video Interleave
File size : 286 MiB
Duration : 30mn 11s
Overall bit rate : 1 323 Kbps
Video
ID : 0
Format : MPEG-4 Visual
Format profile : Simple@L3
Format settings, BVOP : No
Format settings, QPel : No
Format settings, GMC : No warppoints
Format settings, Matrix : Default (H.263)
Codec ID : XVID
Codec ID/Hint : XviD
Duration : 30mn 11s
Bit rate : 1 179 Kbps
Width : 640 pixels
Height : 480 pixels
Display aspect ratio : 4:3
Frame rate : 25.000 fps
Color space : YUV
Chroma subsampling : 4:2:0
Bit depth : 8 bits
Scan type : Progressive
Compression mode : Lossy
Bits/(Pixel*Frame) : 0.153
Stream size : 255 MiB (89%)
Writing library : XviD 1.2.1 (UTC 2008-12-04)
Audio
ID : 1
Format : MPEG Audio
Format version : Version 1
Format profile : Layer 3
Mode : Joint stereo
Mode extension : MS Stereo
Codec ID : 55
Codec ID/Hint : MP3
Duration : 30mn 11s
Bit rate mode : Constant
Bit rate : 128 Kbps
Channel(s) : 2 channels
Sampling rate : 44.1 KHz
Compression mode : Lossy
Stream size : 27.6 MiB (10%)
Alignment : Aligned on interleaves
Interleave, duration : 26 ms (0.65 video frame)
Writing library : LAME3.98.2

Скриншоты





cd Рип дополнительно залит на mail.ru cd2
Sci-Fi.Television.torrent
Torrent: Registered [ 2014-12-27 17:45 ]

Download .torrent

Download

11 KB

Status: checked
Completed: 5 times
Size: 286 MB
 


Last edited by Трамвай-фильм on 2014-12-27 20:04; edited 1 time in total
[Profile] [PM]

Трамвай-фильм ®

Gender: Male

Longevity: 4 years 10 months

Posts: 1460

Location: Россия

Post 27-Dec-2014 17:56 (after 10 minutes)

[Quote]

Если кому нужен чистый голос: http://www66.zippyshare.com/v/83775722/file.html
[Profile] [PM]

$Shorox

Gender: Male

Longevity: 6 years 6 months

Posts: 1888

Post 27-Dec-2014 20:01 (after 2 hours 4 minutes)

[Quote]

Трамвай-фильм,
Тут есть книга по истории кинофантастики: Ханютин Ю. - Реальность фантастического мира [1977, Rus, DjVu]
[Profile] [PM]

Трамвай-фильм ®

Gender: Male

Longevity: 4 years 10 months

Posts: 1460

Location: Россия

Post 27-Dec-2014 20:05 (after 3 minutes)

[Quote]

1977? Так рановатая. Они даже первый сиквелы классики не запустили.
[Profile] [PM]

$Shorox

Gender: Male

Longevity: 6 years 6 months

Posts: 1888

Post 03-Jan-2015 21:38 (after 7 days)

[Quote]

Трамвай-фильм,
Спасибо.
Посмотрел. Из упоминаемых в фильмов бвуквально единицы остались непереведёнными.
Вот эти:
Tom Corbett, Space Cadet http://www.kinopoisk.ru/film/439873/
Space Patrol http://www.kinopoisk.ru/film/467005/
Alcoa Presents: One Step Beyond (1959–1961) http://www.imdb.com/title/tt0052442
Несколько сериалов здесь на космоаэлите перевели.
Бегство Логана / Logan's Run (TV) / Сезон: 1 / Серии: 1-14 (14) (Пол Красны, Ирвинг Дж. Мур) [1977-1978]
Затерянные в космосе / Lost in Space / Сериал s01e00-29x29 (Ирвин Аллен, Дон Ричардсон, Соби Мартин, Натан Юран) [1965-68]
Фильмы про Флэш Гордона и несколько других.
Вы перевели четыре фильма про Rocky Jones, Space Ranger
Угроза из Космоса / Menace from Outer Space (Холлингсворт Морс / Hollingsworth Morse) [1956]
Облава в космосе / Manhunt in space (Hollingsworth Morse) [1956]
Серебряные иглы в небе / Silver Needle in the Sky (Холингсворт Морс / Hollingsworth Morse) [1954]
Угроза из Космоса / Menace from Outer Space (Холлингсворт Морс / Hollingsworth Morse) [1956]
[Profile] [PM]

Трамвай-фильм ®

Gender: Male

Longevity: 4 years 10 months

Posts: 1460

Location: Россия

Post 04-Jan-2015 11:28 (after 13 hours)

[Quote]

8635Трамвай-фильм,
Спасибо.
Посмотрел. Из упоминаемых в фильмов бвуквально единицы остались непереведёнными.
Ну кроме того в сети есть Бэтмен, Супермен и Стартреки. Странно, что в сериале не упомянули Доктора Кто и сериалы от Фильмейшена.
Кстати вопрос с Колчаком, Бионической женщиной и Человеком за 6 млн $
PS из Роки Джонса у вас один фильм дважды повторен, вместо одной Угрозы из космоса должно быть Крушение Лун и Блуждающие луны.
[Profile] [PM]

$Shorox

Gender: Male

Longevity: 6 years 6 months

Posts: 1888

Post 04-Jan-2015 11:40 (after 12 minutes)

[Quote]

Трамвай-фильм,
Колчака в открытом доступе нет. Похоже есть на закрытых ресурсах.
Ночная галерея ужасов переводилась на синемаскопе. Часть есть здесь:Ночная галерея ужасов / Night Gallery (Борис Сагал / Boris Sagal, Бэрри Шир / Barry Shear, Стивен Спилберг / Steven Spielberg) [1969]
Биобаба / Бионическая женщина / Bionic Woman / Сезон: 1 / Серии: 1-8 (8) (Майкл Диннер / Michael Dinner) [2007]
Человек на шесть миллионов долларов. Трилогия / The Six Million Dollar Man. Trilogy (Ричард Ирвинг / Richard Irving) [1973]
P.S.
Всё, уезжаю.
[Profile] [PM]

Трамвай-фильм ®

Gender: Male

Longevity: 4 years 10 months

Posts: 1460

Location: Россия

Post 04-Jan-2015 17:22 (after 5 hours)

[Quote]

8644Трамвай-фильм,
Колчака в открытом доступе нет. Похоже есть на закрытых ресурсах.
Жаль. Хрена-се, это я проспал!
P.S.
Всё, уезжаю.
куда?
[Profile] [PM]
Quick Reply

Name:

            
Heads necessary to send messages to enable JavaScript
Display posts:    
Reply to topic

Current time is: 21-Jun 00:46

All times are UTC + 3



You cannot post new topics in this forum
You can reply to topics in this forum
You cannot edit your posts in this forum
You cannot delete your posts in this forum
You cannot vote in polls in this forum
You cannot attach files in this forum
You can download files in this forum