Во власти смертельного тумана / I diafanoidi vengono da Marte / War of the Planets (Антонио Маргерити / Antonio Margheriti) [1966 г., фантастика, боевик, триллер, ужасы, DVDRip-AVC] 2хЛО (den904, slavnus), CТ (Annie Phoenix)

Reply to topic
 
Author Message

admin ®

Gender: Male

Longevity: 7 years 3 months

Posts: 4812

Post 16-Sep-2012 23:46

[Quote]

Во власти смертельного тумана / I diafanoidi vengono da Marte / War of the Planets
Год выпуска: 1966
Страна: Италия, Mercury Film International, Southern Cross Feature Film Company
Жанр: фантастика, боевик, триллер, ужасы
Продолжительность: 01:36:44
Перевод 1: Любительский (одноголосый) den904 ( на итал.) по переводу Annie Phoenix+sasha20072007
Перевод 1: Любительский (одноголосый) slavnus (на англ.) по перевод Annie Phoenix+sasha20072007
Режиссер: Антонио Маргерити / Antonio Margheriti
В ролях: Тони Рассел, Лиза Гастони, Франко Неро, Карло Джустини, Энцо Фьермонте, Линда Сини
Описание: Второй фильм квадрологии Антонио Маргерити. В 21-ом столетии иноземные (странные, зеленые огни, что иногда проявляются как большие облака дыма) вторгаются в Солнечную систему. Используя Марс как пристанище, они крадут все космические станции Земли, и делают одержимыми людей...
Квадрилогия:
Gamma I Quadrilogy vol 1-4:

1. Дикая-дикая планета / I criminali della galassia / Wild, Wild Planet 1965
2. Во власти смертельного тумана/ I diafanoidi vengono da Marte / War of the Planets 1966
3. Война между планетами / Il Planets errante 1966
4. La morte viene dal pianeta Aytin / Snow Devil 1967
Качество: DVDRip-AVC
Формат: MKV
Видео: x264, 1834 Кбит/с, 720х480@853x480
Аудио 1: Русский ЛО (den904) (AC3, 2 ch, 192 Кбит/с)
Аудио 2: Английский (AC3, 2 ch, 192 Кбит/с)
Аудио 3: Итальянский (МР3, 2 ch, 128 Кбит/с)
Аудио 4: Русский ЛО (slavnus) (AC3, 2 ch, 192 Кбит/с)
Субтитры : Русские (Annie Phoenix+sasha20072007)
Работа над релизом:
Рип с DVD5 - sasha20072007, качество crf=20
Перевод-субтитры: Annie Phoenix+sasha20072007
Озвучивание: slavnus
Русская озвучка по заказу kosmoaelita - den904. Спонсор озвучки - Андрей Берг



Пример русской озвучки den904

Дополнительно

Другие названия фильма
Diaphanoids, Bringers of Death (undefined)
Gamma I Quadrilogy Vol. 2 USA (series title)
La guerra de los planetas Spain
O Choque dos Planetas Brazil (imdb display title)
Oi daimones me tis kokkines maskes Greece (transliterated ISO-LATIN-1 title)
Planet der Verdammten West Germany
Tödliche Nebel West Germany
The Deadly Diaphonoids (undefined)
The War of the Planets US
Сравнение рипа и оригин. ДВД5
Для Украины: рип и оригинальный ДВД дополнительно залиты в файлохранилище
Для удаления,добавления и извлечения дорожек в mkv используйте бесплатную портативную mkvmerge GUI 7.1.0
Для присоединения потом дорожек к avi воспользуйтесь VirtualDubMod

MediaInfo

Общее
Уникальный идентификатор : 200508746649908084133007497488378638290 (0x96D89476310ECE02A89CC165C2F82FD2)
Полное имя : N:\I diafanoidi vengono da Marte 1966.x264.DVDRip.AVC.2xRus.kosmoaelita.mkv
Формат : Matroska
Версия формата : Version 4 / Version 2
Размер файла : 1,75 Гбайт
Продолжительность : 1 ч. 36 м.
Общий поток : 2582 Кбит/сек
Название фильма : I diafanoidi vengono da Marte / 1966 / Во власти смертельного тумана / rip by sasha20072007 (kosmoaelita)
Дата кодирования : UTC 2014-12-11 15:33:57
Программа кодирования : mkvmerge v6.6.0 ('The Edge Of The In Between') built on Dec 1 2013 17:55:00
Библиотека кодирования : libebml v1.3.0 + libmatroska v1.4.1
Attachements : I diafanoidi vengono da Marte.jpg / I%20Diafanoidi%20Vengono%20Da%20Marte.jpg
Видео
Идентификатор : 1
Формат : AVC
Формат/Информация : Advanced Video Codec
Профиль формата : High@L4.1
Параметр CABAC формата : Да
Параметр ReFrames формата : 9 кадров
Идентификатор кодека : V_MPEG4/ISO/AVC
Продолжительность : 1 ч. 36 м.
Битрейт : 1827 Кбит/сек
Ширина : 720 пикселей
Высота : 480 пикселей
Соотношение сторон : 16:9
Режим частоты кадров : Постоянный
Частота кадров : 23,976 кадра/сек
Стандарт вещания : NTSC
Цветовое пространство : YUV
Субдискретизация насыщенности : 4:2:0
Битовая глубина : 8 бит
Тип развёртки : Прогрессивная
Бит/(Пиксели*Кадры) : 0.220
Размер потока : 1,24 Гбайт (71%)
Заголовок : Спонсор русской озвучки - Андрей Берг
Библиотека кодирования : x264 core 120 r2164 da19765
Настройки программы : cabac=1 / ref=9 / deblock=1:-3:-3 / analyse=0x3:0x133 / me=umh / subme=11 / psy=1 / psy_rd=0.93:0.06 / mixed_ref=1 / me_range=24 / chroma_me=1 / trellis=2 / 8x8dct=1 / cqm=0 / deadzone=6,6 / fast_pskip=1 / chroma_qp_offset=-3 / threads=12 / sliced_threads=0 / nr=0 / decimate=0 / interlaced=0 / bluray_compat=0 / constrained_intra=0 / bframes=12 / b_pyramid=2 / b_adapt=2 / b_bias=0 / direct=3 / weightb=1 / open_gop=0 / weightp=2 / keyint=220 / keyint_min=22 / scenecut=40 / intra_refresh=0 / rc_lookahead=60 / rc=crf / mbtree=1 / crf=20.0 / qcomp=0.80 / qpmin=0 / qpmax=69 / qpstep=4 / vbv_maxrate=17500 / vbv_bufsize=14000 / crf_max=0.0 / nal_hrd=none / ip_ratio=1.25 / aq=1:0.60
Default : Да
Forced : Нет
Аудио #1
Идентификатор : 2
Формат : AC-3
Формат/Информация : Audio Coding 3
Расширение режима : CM (complete main)
Параметр Endianness формата : Big
Идентификатор кодека : A_AC3
Продолжительность : 1 ч. 36 м.
Вид битрейта : Постоянный
Битрейт : 192 Кбит/сек
Каналы : 2 канала
Расположение каналов : Front: L R
Частота : 48,0 КГц
Битовая глубина : 16 бит
Метод сжатия : С потерями
Размер потока : 133 Мбайт (7%)
Заголовок : Русский ЛО (den904 для kosmoaelita.com)
Язык : Russian
Default : Да
Forced : Нет
Аудио #2
Идентификатор : 3
Формат : AC-3
Формат/Информация : Audio Coding 3
Расширение режима : CM (complete main)
Параметр Endianness формата : Big
Идентификатор кодека : A_AC3
Продолжительность : 1 ч. 36 м.
Вид битрейта : Постоянный
Битрейт : 192 Кбит/сек
Каналы : 2 канала
Расположение каналов : Front: L R
Частота : 48,0 КГц
Битовая глубина : 16 бит
Метод сжатия : С потерями
Размер потока : 133 Мбайт (7%)
Язык : English
Default : Нет
Forced : Нет
Аудио #3
Идентификатор : 4
Формат : MPEG Audio
Версия формата : Version 1
Профиль формата : Layer 3
Идентификатор кодека : A_MPEG/L3
Идентификатор кодека/Подсказка : MP3
Продолжительность : 1 ч. 36 м.
Вид битрейта : Постоянный
Битрейт : 128 Кбит/сек
Каналы : 2 канала
Частота : 48,0 КГц
Метод сжатия : С потерями
Размер потока : 88,6 Мбайт (5%)
Библиотека кодирования : LAME3.98r
Настройки программы : -m s -V 4 -q 3 -lowpass 17 -b 128
Язык : Italian
Default : Нет
Forced : Нет
Аудио #4
Идентификатор : 5
Формат : AC-3
Формат/Информация : Audio Coding 3
Расширение режима : CM (complete main)
Параметр Endianness формата : Big
Идентификатор кодека : A_AC3
Продолжительность : 1 ч. 36 м.
Вид битрейта : Постоянный
Битрейт : 192 Кбит/сек
Каналы : 2 канала
Расположение каналов : Front: L R
Частота : 48,0 КГц
Битовая глубина : 16 бит
Метод сжатия : С потерями
Размер потока : 133 Мбайт (7%)
Заголовок : Русский (slavnus)
Язык : Russian
Default : Нет
Forced : Нет
Текст #1
Идентификатор : 6
Формат : VobSub
Режим смешивания : zlib
Идентификатор кодека : S_VOBSUB
Идентификатор кодека/Информация : The same subtitle format used on DVDs
Заголовок : Русский (Annie Phoenix+sasha20072007) VobSub
Язык : Russian
Default : Да
Forced : Нет
Текст #2
Идентификатор : 7
Формат : UTF-8
Идентификатор кодека : S_TEXT/UTF8
Идентификатор кодека/Информация : UTF-8 Plain Text
Заголовок : Русский (Annie Phoenix+sasha20072007) srt
Язык : Russian
Default : Нет
Forced : Нет
Меню
00:00:00.000 : :Chapter 01
00:10:00.000 : :Chapter 02
00:20:00.000 : :Chapter 03
00:30:00.000 : :Chapter 04
00:40:00.000 : :Chapter 05
00:50:00.000 : :Chapter 06
01:00:00.000 : :Chapter 07
01:10:00.000 : :Chapter 08
01:20:00.000 : :Chapter 09
01:30:00.000 : :Chapter 10

Скриншоты


Скринлист

cd Рип дополнительно залит на mail.ru cd2


Last edited by admin on 2014-12-15 14:38; edited 9 times in total
[Profile] [PM]

Guest

Gender: Unknown

Post 18-Nov-2013 18:10 (after 1 year 2 months)

[Quote]

Поправьте в шапке -- Во власти смертельного тумана / I diafanoidi vengono da Marte / War of the Planets.
Здесь / War of the Planets ( Это англояз. название фильма)относится к третьему фильму -- Война между планетами.
 

admin ®

Gender: Male

Longevity: 7 years 3 months

Posts: 4812

Post 11-Dec-2014 01:43 (after 1 year)

[Quote]

Добавлена озвучка от ден904
[Profile] [PM]

Трамвай-фильм

Gender: Male

Longevity: 5 years 4 months

Posts: 1706

Location: Россия

Post 11-Dec-2014 17:21 (after 15 hours)

[Quote]

видел я этот фильм, там больше пафоса.
[Profile] [PM]
Quick Reply

Name:

            
Heads necessary to send messages to enable JavaScript
Display posts:    
Reply to topic

Current time is: 13-Dec 03:52

All times are UTC + 3



You cannot post new topics in this forum
You can reply to topics in this forum
You cannot edit your posts in this forum
You cannot delete your posts in this forum
You cannot vote in polls in this forum
You cannot attach files in this forum
You cannot download files in this forum