Разведка 2023 / Розвідка 2023 / Recon 2023 / Recon 2023: The Gauda Prime Conspiracy (Christian Viel / Кристиан Виль) [2009, Канада, фантастика, DVDRip] ПМ (ТВ3), ПМ (Укр)

Ответить на тему
 
Автор Сообщение

admin ®

Пол: Мужской

Стаж: 5 лет 2 месяца

Сообщений: 4748

Откуда: Україна

Создавать темы 26-Дек-2014 01:01

[Цитировать]

Разведка 2023 / Recon 2023 / Recon 2023: The Gauda Prime Conspiracy
Страна: Канада, Movie Seals Productions
Жанр: фантастика
Год выпуска: 2009
Продолжительность: 01:41:16
Перевод: Профессиональный (многоголосый) _ ТВ3
Режиссер: Christian Viel / Кристиан Виль
В ролях:
Andy Bradshaw ... Lieutenant Sharp (as Anderson Bradshaw)
Deke Richards ... Doctor Scott Anderson
Heidi Hawkins ... Jesse Sandstorm
Valérie Wiseman ... Kara
Gregoriane Minot Payeur ... Lawan (as Gregoriane Minot)
Lael Stellick ... Face
Niko Romberg ... First Base
Nobuya Shimamoto ... Mako
Shan Chetty ... Shymilan
Andy Quesnel ... Julia Higgins
John Fallon ... CyberMerc 2
Larry Day ... General DeLucas
Edith Labelle ... Veronique Fournier
Jeanne Bowser ... Sara
Julie Marsland ... Lara
Описание: Третий фильм трилогии.
После 23-лет изнуряющей межгалактической войны, человечество готово совершить беспрецедентную атаку и дать решающий отпор инопланетным захватчикам. Однако для успеха операции необходимо найти и уничтожить главное оружие противника. Эта задача ложится на плечи лейтенанта Шарпа и его боевой команды…

Качество: DVDRip
Формат: MKV
Видео: xvid, 1278 кбит/с, 640x360, 29.97 к/с
Аудио 1: Русский ПМ (ТВ3) (AC3, 2 ch, 192 Кбит/с)
Аудио 1: Українська ПМ (Так Треба Продакшн) (AC3, 2 ch, 192 Кбит/с)
Аудио 2: Английский (МР3, 2 ch, 128 Кбит/с)
Работа над релизом:
Видеоряд найден в сети.
Работа по синхронизации аудиодорожек - sasha20072007 (kosmoaelita)



Пример русской озвучки

Дополнительно

слоган «Dead Aliens don't probe!»
бюджет CAD 300 000
================================================
Для Украины: рип и оригинальный ДВД дополнительно залиты в файлохранилище
Для удаления,добавления и извлечения дорожек в mkv используйте бесплатную портативную mkvmerge GUI 7.1.0
Для присоединения потом дорожек к avi воспользуйтесь VirtualDubMod

Знаете ли вы, что...

Разведка 2020
Разведка 2022: Инцидент Меццо
Разведка 2023

Отзывы

полная муть, смотрел пролистывая от скуки кнопкой вперёд до самого конца. говно сюжет, говно графика, грим и актеры тоже никакие. зря потратил время и трафик.
--------------------------------------------
говорят такое Га..но, просто гавно из говна.Аш охота посмотреть, чтож за га..но такое низко оценимое.
---------------------------------------------
главное оружие" - убило
----------------------------------------------
Мегатрэш! И перевод супер. 34-я минута, Fire in a hole! перевели как "Стреляй в дыру!" Яплакаль )))
Ухахаха!!! Еще и продолжение такое интригующее!!! Аффтар! давай исчо!
ИМХО, "фантастики" хуже этой может быть только продолжение.
Млин, где нормальная фантастика, почему не экранизируют Головочева? Запрещенная реальность не считается...
----------------------------------------------
поддерживаю последнего оратора)))
Это редкостный трэш, но такого шедеврального г...на я давно не видел!
"самый лучший фильм" тихо курит в сторонке вместе с остальными 2 частями)
-----------------------------------------------
Головачева, действительно, пора снимать, практически, каждая кника- шедевр фантастики!
-------------------------------------------------
Какое лютое г.но... o_0 Кстати, вроде они обещали выпустить продолжение "Recon 2024". Никто не знает, оно вообще выйдет?
-------------------------------------------------
Asylum отдыхает, серьёзно.
--------------------------------------------------

Рецензия

Очень очень плохой фильм.
Подобные фильмы позорят кинематограф. Если кино это искусство, то что тогда данная поделка? Абсолютно невнятный сюжет, потрать на этот сюжет хоть какие деньги, фильм остался бы полным Г. Но на данный шедевр канадского кино потратили целых 300 тысяч все тех же канадских долларов, кто не в курсе, канадский доллар стоит еще меньше чем американский.
И что же можно снять исходя из такого бюджета? Порно? Возможно. Документальное кино? Возможно. Блокбастер? Точно нет. Фантастику? Даже смешно писать. Ответ прост: за 300 тысяч канадских рублей можно снять фильм «Разведка 2023». Видимо, это продолжение «нашумевшего» фильма «Разведка 2022: Инцидент меццо». Но дело в том, что на продолжение было потрачено еще меньше, чем на первый фильм.
Этот фильм при своем годе выпуска 2009 уже успел засветиться на печально известном канале ТВ3, там обычно подобное и показывают. Свою единицу он заслуживает как только начинаются первые минуты фильма. Создатели взяли в актрисы симпатичных девчонок, напялили на них огромные костюмы, похожие на те, что матери шьют детям на праздники в детский сад. Ну, а про мужской состав лучше промолчать, во-первых, сказать нечего, а во-вторых, эээ… ну, нечего сказать. Спецэффекты… Их нет, есть лишь декорации и маломальские взрывы, однако, накупили петард и решили задействовать их в кадре. Скукота…
А самое смешное и обидное то, что чувствуется, что создатели настроились снимать продолжение и не одно.
1 из 10

MediaInfo

Общее
Уникальный идентификатор : 245337553804670541882752962245657339175 (0xB8924B4C7708C3A4B869D7FCBA57A527)
Полное имя : N:\Recon 2023 2009.XviD.DVDRip.Rus.Ukr.kosmoaelita.mkv
Формат : Matroska
Версия формата : Version 4 / Version 2
Размер файла : 1,21 Гбайт
Продолжительность : 1 ч. 41 м.
Общий поток : 1715 Кбит/сек
Название фильма : Разведка 2023 / Recon 2023. The Gauda Prime Conspiracy / 2009 / kosmoaelita
Дата кодирования : UTC 2014-12-25 21:21:18
Программа кодирования : mkvmerge v6.6.0 ('The Edge Of The In Between') built on Dec 1 2013 17:55:00
Библиотека кодирования : libebml v1.3.0 + libmatroska v1.4.1
Attachements : kinopoisk_ru-Recon-2023_3A-The-Gauda-Prime-Conspiracy-972256.jpg
Видео
Идентификатор : 1
Формат : MPEG-4 Visual
Профиль формата : Simple@L3
Параметр BVOP формата : Нет
Параметр QPel формата : Нет
Параметр GMC формата : Без точки перехода
Параметр матрицы формата : Default (H.263)
Идентификатор кодека : V_MS/VFW/FOURCC / XVID
Идентификатор кодека/Подсказка : XviD
Продолжительность : 1 ч. 41 м.
Битрейт : 1169 Кбит/сек
Ширина : 640 пикселей
Высота : 360 пикселей
Соотношение сторон : 16:9
Режим частоты кадров : Постоянный
Частота кадров : 29,970 кадров/сек
Цветовое пространство : YUV
Субдискретизация насыщенности : 4:2:0
Битовая глубина : 8 бит
Тип развёртки : Прогрессивная
Метод сжатия : С потерями
Бит/(Пиксели*Кадры) : 0.169
Размер потока : 846 Мбайт (68%)
Заголовок : kosmoaelita.com
Библиотека кодирования : Magic0432
Default : Да
Forced : Нет
Аудио #1
Идентификатор : 2
Формат : AC-3
Формат/Информация : Audio Coding 3
Расширение режима : CM (complete main)
Параметр Endianness формата : Big
Идентификатор кодека : A_AC3
Продолжительность : 1 ч. 41 м.
Вид битрейта : Постоянный
Битрейт : 192 Кбит/сек
Каналы : 2 канала
Расположение каналов : Front: L R
Частота : 48,0 КГц
Битовая глубина : 16 бит
Метод сжатия : С потерями
Размер потока : 139 Мбайт (11%)
Заголовок : Русский ПМ (ТВ3)
Язык : Russian
Default : Да
Forced : Нет
Аудио #2
Идентификатор : 3
Формат : AC-3
Формат/Информация : Audio Coding 3
Расширение режима : CM (complete main)
Параметр Endianness формата : Big
Идентификатор кодека : A_AC3
Продолжительность : 1 ч. 41 м.
Вид битрейта : Постоянный
Битрейт : 192 Кбит/сек
Каналы : 2 канала
Расположение каналов : Front: L R
Частота : 48,0 КГц
Битовая глубина : 16 бит
Метод сжатия : С потерями
Размер потока : 139 Мбайт (11%)
Заголовок : Українська ПМ (Так Треба Продакшн для Інтер)
Язык : Ukrainian
Default : Нет
Forced : Нет
Аудио #3
Идентификатор : 4
Формат : MPEG Audio
Версия формата : Version 1
Профиль формата : Layer 3
Режим : Joint stereo
Расширение режима : MS Stereo
Идентификатор кодека : A_MPEG/L3
Идентификатор кодека/Подсказка : MP3
Продолжительность : 1 ч. 41 м.
Вид битрейта : Постоянный
Битрейт : 128 Кбит/сек
Каналы : 2 канала
Частота : 44,1 КГц
Метод сжатия : С потерями
Размер потока : 92,7 Мбайт (7%)
Язык : English
Default : Нет
Forced : Нет

Скриншоты










Скринлист

cd Рип дополнительно залит на mail.ru cd2


Последний раз редактировалось: admin (2014-12-26 01:16), всего редактировалось 3 раз(а)
[Профиль] [ЛС]

admin ®

Пол: Мужской

Стаж: 5 лет 2 месяца

Сообщений: 4748

Откуда: Україна

Создавать темы 26-Дек-2014 01:04 (спустя 2 минуты)

[Цитировать]

ДВД найти не удалось. как и рипа лучшего качества. Рип на 1.4 гига на кинозале - еще более мутная пережатка с данного рипа
[Профиль] [ЛС]

Susanin

Пол: Мужской

Стаж: 3 года 7 месяцев

Сообщений: 706

Создавать темы 26-Дек-2014 08:43 (спустя 7 часов)

[Цитировать]

Ура! Остался второй для коллекции
AA
[Профиль] [ЛС]

admin ®

Пол: Мужской

Стаж: 5 лет 2 месяца

Сообщений: 4748

Откуда: Україна

Создавать темы 26-Дек-2014 11:43 (спустя 3 часа)

[Цитировать]

Со вторым проблемы - на рутрукере неполный порезанный рип и со второй половины рассинхрон страшный.
[Профиль] [ЛС]

Susanin

Пол: Мужской

Стаж: 3 года 7 месяцев

Сообщений: 706

Создавать темы 22-Янв-2015 13:37 (спустя 27 дней)

[Цитировать]

Третья часть получилась самая юмористическая.
[Профиль] [ЛС]
Показать сообщения:    
Ответить на тему

Текущее время: 22-Ноя 20:13

Часовой пояс: UTC + 3:30



Вы не можете начинать темы
Вы не можете отвечать на сообщения
Вы не можете редактировать свои сообщения
Вы не можете удалять свои сообщения
Вы не можете голосовать в опросах
Вы не можете прикреплять файлы к сообщениям
Вы не можете скачивать файлы