Полет к тысячам Солнц (Алексей Ерин) [1963, СССР, Научно-популярный, VHSRip]

Reply to topic
 
Author Message

admin ®

Gender: Male

Longevity: 7 years 9 months

Posts: 4799

Post 23-Dec-2014 00:06

[Quote]

Полет к тысячам Солнц
Страна: СССР, Леннаучфильм
Жанр: Научно-популярный
Год выпуска: 1963
Продолжительность: 00:16:14
Перевод: Не требуется
Режиссер: Алексей Ерин
Режиссеры: А. Ерин
Операторы: А. Ерин
Авторы сценария: В. Пономарев
Композиторы: Л. Пригожин
художник В. Первунин
Описание: Научно-популярный фильм с элементами игрового кино рассказывает о строении Вселенной, космических объектах.
Во время ночной рыбалки молодой учёный рассказывает мальчику о устройстве Вселенной, о системе галактик и т. д.
В своих мечтах мальчик переносится в будущее, воображая себя командиром космического корабля.

Качество: VHSRip
Формат: MKV
Видео: x264, 225 кбит/с, 320x240, 25 к/с (РЕКЛАМА НА ВИДЕО)
Аудио 1: Русский (AC3, 2 ch, 192 Кбит/с)
Работа над релизом:
На видео - реклама в виде водяных знаков
http://www.net-film.ru/film-53670/?search=p12#
https://vk.com/video-35021859_170072616

Дополнительно

================================================
Для Украины: рип и оригинальный ДВД дополнительно залиты в файлохранилище
Для удаления,добавления и извлечения дорожек в mkv используйте бесплатную портативную mkvmerge GUI 7.1.0
Для присоединения потом дорожек к avi воспользуйтесь VirtualDubMod

Отзывы

MediaInfo

Общее
Уникальный идентификатор : 174242483873966959366505244575462530423 (0x8315E1B8E88D0939BBF3D0056D7B1D77)
Полное имя : Полет к тысячам солнц 1963 СССР.mkv
Формат : Matroska
Версия формата : Version 4 / Version 2
Размер файла : 48,7 Мбайт
Продолжительность : 16 м.
Общий поток : 419 Кбит/сек
Дата кодирования : UTC 2014-12-22 20:47:22
Программа кодирования : mkvmerge v6.6.0 ('The Edge Of The In Between') built on Dec 1 2013 17:55:00
Библиотека кодирования : libebml v1.3.0 + libmatroska v1.4.1
Видео
Идентификатор : 1
Формат : AVC
Формат/Информация : Advanced Video Codec
Профиль формата : High@L1.3
Параметр CABAC формата : Да
Параметр ReFrames формата : 4 кадра
Идентификатор кодека : V_MPEG4/ISO/AVC
Продолжительность : 16 м.
Битрейт : 225 Кбит/сек
Ширина : 320 пикселей
Высота : 240 пикселей
Соотношение сторон : 4:3
Режим частоты кадров : Постоянный
Частота кадров : 25,000 кадров/сек
Цветовое пространство : YUV
Субдискретизация насыщенности : 4:2:0
Битовая глубина : 8 бит
Тип развёртки : Прогрессивная
Бит/(Пиксели*Кадры) : 0.117
Размер потока : 25,4 Мбайт (52%)
Библиотека кодирования : x264 core 128 r2216 198a7ea
Настройки программы : cabac=1 / ref=3 / deblock=1:0:0 / analyse=0x3:0x113 / me=hex / subme=7 / psy=1 / psy_rd=1.00:0.00 / mixed_ref=1 / me_range=16 / chroma_me=1 / trellis=1 / 8x8dct=1 / cqm=0 / deadzone=21,11 / fast_pskip=1 / chroma_qp_offset=-2 / threads=6 / lookahead_threads=1 / sliced_threads=0 / nr=0 / decimate=1 / interlaced=0 / bluray_compat=0 / constrained_intra=0 / bframes=3 / b_pyramid=2 / b_adapt=1 / b_bias=0 / direct=1 / weightb=1 / open_gop=0 / weightp=2 / keyint=25 / keyint_min=2 / scenecut=40 / intra_refresh=0 / rc_lookahead=40 / rc=cbr / mbtree=1 / bitrate=225 / ratetol=1.0 / qcomp=0.60 / qpmin=0 / qpmax=69 / qpstep=4 / vbv_maxrate=225 / vbv_bufsize=1024 / nal_hrd=none / ip_ratio=1.40 / aq=1:1.00
Язык : English
Default : Да
Forced : Нет
Аудио
Идентификатор : 2
Формат : AC-3
Формат/Информация : Audio Coding 3
Расширение режима : CM (complete main)
Параметр Endianness формата : Big
Идентификатор кодека : A_AC3
Продолжительность : 16 м.
Вид битрейта : Постоянный
Битрейт : 192 Кбит/сек
Каналы : 2 канала
Расположение каналов : Front: L R
Частота : 48,0 КГц
Битовая глубина : 16 бит
Метод сжатия : С потерями
Задержка видео : -17 мс.
Размер потока : 22,3 Мбайт (46%)
Язык : Russian
Default : Да
Forced : Нет

Скринлист

cd Рип дополнительно залит на mail.ru cd2
[Profile] [PM]

Guest

Gender: Unknown

Post 23-Dec-2014 09:33 (after 9 hours)

[Quote]

удаляй отсюда и с ютуба del
 

admin ®

Gender: Male

Longevity: 7 years 9 months

Posts: 4799

Post 23-Dec-2014 12:34 (after 3 hours)

[Quote]

Уже полтора месяца свободно лежит для скачки
http://www.net-film.ru/film-53670/?search=p12#
https://vk.com/video-35021859_170072616
[Profile] [PM]

admin ®

Gender: Male

Longevity: 7 years 9 months

Posts: 4799

Post 23-Dec-2014 14:13 (after 1 hour 38 minutes)

[Quote]

кому интересны субтитры к ранее выкладенным фильмам то все файлы на HDD я удалил в 2013 году, что сохранено то записано на двд,у меня более 700 двд,искать нет желания,большая часть двд без обложек,сам что нужно не могу найти, нужен архиватор
Архиватор
All My Movies
http://rutracker.org/forum/viewtopic.php?t=4765426
[Profile] [PM]

$Shorox

Gender: Male

Longevity: 7 years 5 months

Posts: 1887

Post 23-Dec-2014 15:09 (after 56 minutes)

[Quote]

admin,
Я раньше список своих аниме делал на http://www.world-art.ru. Сейчас просто этой TreeSize Professional программой список на HDD составляю.
[Profile] [PM]

pompilius

Gender: Male

Longevity: 2 years 7 months

Posts: 354

Post 18-Jun-2018 07:04 (after 3 years 5 months)

[Quote]

Ссылка на облако не рабочая


Last edited by pompilius on 2019-09-14 07:18; edited 1 time in total
[Profile] [PM]

Трамвай-фильм

Gender: Male

Longevity: 5 years 10 months

Posts: 1834

Location: Россия

Post 18-Jun-2018 17:24 (after 10 hours)

[Quote]

20682Ссылка на облако не рабочая
Этот фильм залит на Ютуб.
[Profile] [PM]

pompilius

Gender: Male

Longevity: 2 years 7 months

Posts: 354

Post 18-Jun-2018 20:09 (after 2 hours 44 minutes)

[Quote]

Да, я знаю, и не только на ютуб, много ещё где есть.
Я просто констатирую факт - ссылка есть, но битая.
[Profile] [PM]
Display posts:    
Reply to topic

Current time is: 07-Jun 02:17

All times are UTC + 3



You cannot post new topics in this forum
You cannot reply to topics in this forum
You cannot edit your posts in this forum
You cannot delete your posts in this forum
You cannot vote in polls in this forum
You cannot attach files in this forum
You cannot download files in this forum