Существа забытые миром / Creatures the World Forgot (Дон Чеффи) [1971 г., Фантастика, приключения, ужасы, DVDRip-AVC]

Reply to topic
 
Author Message

admin ®

Gender: Male

Longevity: 7 years 2 months

Posts: 4723

Post 16-Sep-2012 22:57

[Quote]

Существа забытые миром / Creatures the World Forgot
Год выпуска: 1971
Страна: Великобритания, Hammer Film Productions Limited
Жанр: Фантастика, приключения, ужасы
Продолжительность: 01:35:26
Перевод: Не требуется
Режиссер: Дон Чеффи
В ролях: Джули Эдж, Брайан О`Шонесси, Тони Боннер, Робин Джон, Марсия Фокс, Розали Кратчли, Дон Леонард, Беверли Блейк, Сью Уилсон
Описание: Третий фильм трилогии.Доисторические времена. После того, как большая часть племени погибает в результате извержения вулкана, суровый воин Мали берет на себя бремя лидерства над оставшимися в живых товарищами. Он ведет их через пустыню на поиски новой плодородной земли. Вскоре дикари встречаются с племенем более развитых людей с белыми волосами. Мали женится на местной девушке, и вскоре та рожает ему мальчиков-близнецов: мирного, спокойного и сообразительного Тумака и жестокого, воинственного и сурового Рула. Проходит много лет. Когда сыновья Мали вырастают, они начинают соперничать между собой за главенствующее положение в племени, а главное: за обладание очаровательной девушкой Налой…
Третий фильм трилогии:
1) Миллион лет до нашей эры (One Million Years B.C.) 1966
2) Когда на земле царили динозавры (When Dinosaurs Ruled the Earth) 1970
3) Существа забытые миром (Creatures the World Forgot) 1971
Качество: DVDRip-AVC
Формат: MKV
Видео: x264, 1626 Кбит/с, 720х464@853x464 crf=20
Аудио: Английский (AC3, 2 ch, 192 Кбит/с)

Релиз

Рип с ДВД5 - sasha200720
Перевод не требуется, так как нет членораздельной речи, только музыкальное сопровождение.
[url=http://screenshotcomparison.com/comparison/117530 ]Сравнение с исходником ДВД5[/url]
Для Украины: рип и оригинальный ДВД дополнительно залиты в файлохранилище
Для удаления и добавления дорожек в mkv используйте бесплатную mkvmerge GUI 5.80

Дополнительно

Другие названия:
- "Существа забытые временем", "Чудовища из бездны"
- "Criaturas olvidadas del mundo" - Spain
- "Ilkel ask" - Turkey
- "Istoty z zapomianego swiata" - Poland
- "La lotta del sesso sei milioni di anni fa" - Italy
- "O Mundo Esquecido" - Portugal
- "Sex vor sechs Millionen Jahren" - Germany
- "Uga-uga - ihmishirviöiden maa" - Finland
Слоган: «See prehistoric love rites! See primitive chieftains duel in naked fury! See the young lovers sacrificed! See staked girl menaced by giant python! See...Creatures the World Forgot.»

MediaInfo

Общее
Уникальный идентификатор : 170778074872485358434274990910826602582 (0x807AA92BC5E1432DB971D670A48FE056)
Полное имя : E:\Sushchestva.zabytye.mirom.1971.x264.DVDRip.(AVC).sasha200720.mkv
Формат : Matroska
Версия формата : Version 2
Размер файла : 1,26 Гбайт
Продолжительность : 1 ч. 35 м.
Общий поток : 1890 Кбит/сек
Название фильма : Существа забытые миром / 1971 / Creatures the World Forgot / rip by sasha20072007
Дата кодирования : UTC 2012-04-08 10:54:38
Программа кодирования : mkvmerge v5.5.0 ('Healer') built on Apr 6 2012 21:43:24
Библиотека кодирования : libebml v1.2.3 + libmatroska v1.3.0
Attachment : Yes / Yes
Видео
Идентификатор : 1
Формат : AVC
Формат/Информация : Advanced Video Codec
Профиль формата : High@L4.1
Параметр CABAC формата : Да
Параметр ReFrames формата : 10 кадров
Идентификатор кодека : V_MPEG4/ISO/AVC
Продолжительность : 1 ч. 35 м.
Битрейт : 1628 Кбит/сек
Ширина : 720 пикселей
Высота : 464 пикселя
Соотношение сторон : 1,85:1
Соотношение сторон в оригинале : 1,85:1
Режим частоты кадров : Постоянный
Частота кадров : 23,976 кадра/сек
Цветовое пространство : YUV
Субдискретизация насыщенности : 4:2:0
Битовая глубина : 8 бит
Тип развёртки : Прогрессивная
Бит/(Пиксели*Кадры) : 0.203
Размер потока : 1,09 Гбайт (86%)
Библиотека кодирования : x264 core 120 r2164 da19765
Настройки программы : cabac=1 / ref=10 / deblock=1:-3:-2 / analyse=0x3:0x133 / me=umh / subme=11 / psy=1 / psy_rd=1.00:0.15 / mixed_ref=1 / me_range=24 / chroma_me=1 / trellis=2 / 8x8dct=1 / cqm=0 / deadzone=6,6 / fast_pskip=1 / chroma_qp_offset=-3 / threads=12 / sliced_threads=0 / nr=0 / decimate=0 / interlaced=0 / bluray_compat=0 / constrained_intra=0 / bframes=10 / b_pyramid=2 / b_adapt=2 / b_bias=0 / direct=3 / weightb=1 / open_gop=0 / weightp=2 / keyint=220 / keyint_min=22 / scenecut=40 / intra_refresh=0 / rc_lookahead=60 / rc=crf / mbtree=1 / crf=21.0 / qcomp=0.80 / qpmin=0 / qpmax=69 / qpstep=4 / vbv_maxrate=17500 / vbv_bufsize=14000 / crf_max=0.0 / nal_hrd=none / ip_ratio=1.20 / aq=1:0.60
Default : Да
Forced : Нет
Аудио
Идентификатор : 2
Формат : AC-3
Формат/Информация : Audio Coding 3
Расширение режима : CM (complete main)
Параметр Endianness формата : Big
Идентификатор кодека : A_AC3
Продолжительность : 1 ч. 35 м.
Вид битрейта : Постоянный
Битрейт : 224 Кбит/сек
Каналы : 2 канала
Расположение каналов : Front: L R
Частота : 48,0 КГц
Битовая глубина : 16 бит
Метод сжатия : С потерями
Размер потока : 153 Мбайт (12%)
Язык : English
Default : Да
Forced : Нет
Меню
00:00:00.000 : :Chapter 01
00:10:00.500 : :Chapter 02
00:20:00.334 : :Chapter 03
00:30:00.367 : :Chapter 04
00:40:00.034 : :Chapter 05
00:50:00.034 : :Chapter 06
01:00:00.201 : :Chapter 07
01:10:00.102 : :Chapter 08
01:20:00.336 : :Chapter 09
01:30:00.403 : :Chapter 10
01:35:19.903 : :Chapter 11

Скриншоты


cd Рип дополнительно залит на mail.ru cd2


Last edited by admin on 2015-05-21 15:03; edited 1 time in total
[Profile] [PM]

Guest

Gender: Unknown

Post 18-Sep-2012 18:34 (after 1 day 19 hours)

[Quote]

как фильм ?
 

Guest

Gender: Unknown

Post 18-Sep-2012 19:49 (after 1 hour 14 minutes)

[Quote]

для глухонемых
 
Quick Reply

Name:

            
Heads necessary to send messages to enable JavaScript
Display posts:    
Reply to topic

Current time is: 17-Nov 18:59

All times are UTC + 3



You cannot post new topics in this forum
You can reply to topics in this forum
You cannot edit your posts in this forum
You cannot delete your posts in this forum
You cannot vote in polls in this forum
You cannot attach files in this forum
You cannot download files in this forum