Существа забытые миром / Creatures the World Forgot (Дон Чеффи) [1971 г., Фантастика, приключения, ужасы, WEB-DL-720p]

Reply to topic
 
Author Message

admin ®

Gender: Male

Longevity: 7 years 11 months

Posts: 4797

Post 16-Sep-2012 22:57

[Quote]

Существа забытые миром / Creatures the World Forgot
Год выпуска: 1971
Страна: Великобритания, Hammer Film Productions Limited
Жанр: Фантастика, приключения, ужасы
Продолжительность: 01:35:28
Перевод: Не требуется
Режиссер: Дон Чеффи
В ролях: Джули Эдж, Брайан О`Шонесси, Тони Боннер, Робин Джон, Марсия Фокс, Розали Кратчли, Дон Леонард, Беверли Блейк, Сью Уилсон
Описание: Третий фильм трилогии.Доисторические времена. После того, как большая часть племени погибает в результате извержения вулкана, суровый воин Мали берет на себя бремя лидерства над оставшимися в живых товарищами. Он ведет их через пустыню на поиски новой плодородной земли. Вскоре дикари встречаются с племенем более развитых людей с белыми волосами. Мали женится на местной девушке, и вскоре та рожает ему мальчиков-близнецов: мирного, спокойного и сообразительного Тумака и жестокого, воинственного и сурового Рула. Проходит много лет. Когда сыновья Мали вырастают, они начинают соперничать между собой за главенствующее положение в племени, а главное: за обладание очаровательной девушкой Налой…
Третий фильм трилогии:
1) Миллион лет до нашей эры (One Million Years B.C.) 1966
2) Когда на земле царили динозавры (When Dinosaurs Ruled the Earth) 1970
3) Существа забытые миром (Creatures the World Forgot) 1971
Качество: WEBDL-720p
Формат: MKV
Видео: x264, 5000 Кбит/с, 1280x720
Аудио: Английский (AC3, 2 ch, 256 Кбит/с)
Работа над релизом:
Видеоряд найден в сети
Перевод не требуется, так как нет членораздельной речи, только музыкальное сопровождение.


Дополнительно

Другие названия:
- "Существа забытые временем", "Чудовища из бездны"
- "Criaturas olvidadas del mundo" - Spain
- "Ilkel ask" - Turkey
- "Istoty z zapomianego swiata" - Poland
- "La lotta del sesso sei milioni di anni fa" - Italy
- "O Mundo Esquecido" - Portugal
- "Sex vor sechs Millionen Jahren" - Germany
- "Uga-uga - ihmishirviöiden maa" - Finland
Слоган: «See prehistoric love rites! See primitive chieftains duel in naked fury! See the young lovers sacrificed! See staked girl menaced by giant python! See...Creatures the World Forgot.»

MediaInfo

Общее
Уникальный идентификатор : 224203327289213144034509437506247102602 (0xA8ABFD7B80BE463690A7717E8D66908A)
Полное имя : N:\Creatures the World Forgot 1971.x264.WEBDL.720p.kosmoaelita.mkv
Формат : Matroska
Версия формата : Version 4
Размер файла : 3,51 Гбайт
Продолжительность : 1 ч. 35 м.
Общий поток : 5258 Кбит/сек
Дата кодирования : UTC 2020-03-03 06:43:12
Программа кодирования : mkvmerge v6.6.0 ('The Edge Of The In Between') built on Dec 1 2013 17:55:00
Библиотека кодирования : libebml v1.3.0 + libmatroska v1.4.1
Видео
Идентификатор : 1
Формат : AVC
Формат/Информация : Advanced Video Codec
Профиль формата : High@L4.1
Настройки формата : CABAC / 8 Ref Frames
Параметр CABAC формата : Да
Параметр RefFrames формата : 8 кадров
Идентификатор кодека : V_MPEG4/ISO/AVC
Продолжительность : 1 ч. 35 м.
Битрейт : 5000 Кбит/сек
Ширина : 1280 пикселей
Высота : 720 пикселей
Соотношение сторон : 16:9
Режим частоты кадров : Постоянный
Частота кадров : 23,976 кадра/сек
Цветовое пространство : YUV
Субдискретизация насыщенности : 4:2:0
Битовая глубина : 8 бит
Тип развёртки : Прогрессивная
Бит/(Пиксели*Кадры) : 0.226
Размер потока : 3,27 Гбайт (93%)
Библиотека кодирования : x264 core 130 r2273 b3065e6
Настройки программы : cabac=1 / ref=8 / deblock=1:-2:-2 / analyse=0x3:0x131 / me=umh / subme=10 / psy=1 / psy_rd=0.99:0.14 / mixed_ref=1 / me_range=32 / chroma_me=1 / trellis=2 / 8x8dct=1 / cqm=0 / deadzone=21,11 / fast_pskip=1 / chroma_qp_offset=-3 / threads=6 / lookahead_threads=1 / sliced_threads=0 / nr=0 / decimate=1 / interlaced=0 / bluray_compat=0 / constrained_intra=0 / bframes=8 / b_pyramid=2 / b_adapt=2 / b_bias=0 / direct=3 / weightb=1 / open_gop=0 / weightp=2 / keyint=210 / keyint_min=21 / scenecut=40 / intra_refresh=0 / rc_lookahead=80 / rc=2pass / mbtree=1 / bitrate=5000 / ratetol=1.0 / qcomp=0.65 / qpmin=0 / qpmax=69 / qpstep=4 / cplxblur=20.0 / qblur=0.5 / ip_ratio=1.25 / aq=1:0.90
Default : Да
Forced : Нет
Цветовой диапазон : Limited
Основные цвета : BT.709
Характеристики трансфера : BT.709
Коэффициенты матрицы : BT.709
Аудио
Идентификатор : 2
Формат : AC-3
Формат/Информация : Audio Coding 3
Коммерческое название : Dolby Digital
Идентификатор кодека : A_AC3
Продолжительность : 1 ч. 35 м.
Вид битрейта : Постоянный
Битрейт : 256 Кбит/сек
Каналы : 2 канала
ChannelLayout : L R
Частота : 48,0 КГц
Частота кадров : 31,250 кадров/сек (1536 SPF)
Метод сжатия : С потерями
Размер потока : 175 Мбайт (5%)
Язык : English
ServiceKind/String : Complete Main
Default : Да
Forced : Нет
Текст
Идентификатор : 3
Формат : UTF-8
Идентификатор кодека : S_TEXT/UTF8
Идентификатор кодека/Информация : UTF-8 Plain Text
Язык : English
Default : Да
Forced : Нет

Скриншоты


















Скринлист

cd Рип дополнительно залит на mail.ru cd2


Last edited by admin on 2015-05-21 15:03; edited 1 time in total
[Profile] [PM]

Guest

Gender: Unknown

Post 18-Sep-2012 18:34 (after 1 day 19 hours)

[Quote]

как фильм ?
 

Guest

Gender: Unknown

Post 18-Sep-2012 19:49 (after 1 hour 14 minutes)

[Quote]

для глухонемых
 

kosmoaelita

Gender: Male

Longevity: 7 years 11 months

Posts: 1572

Post 03-Mar-2020 09:59 (after 7 years 5 months)

[Quote]

Замена на WEBDL-720p
[Profile] [PM]
Display posts:    
Reply to topic

Current time is: 11-Aug 07:21

All times are UTC + 3



You cannot post new topics in this forum
You cannot reply to topics in this forum
You cannot edit your posts in this forum
You cannot delete your posts in this forum
You cannot vote in polls in this forum
You cannot attach files in this forum
You cannot download files in this forum