Война между планетами / Il pianeta errante / War Between the Planets (Антонио Маргерити / Antonio Margheriti) [1966 г., Фантастика, DVDRip-AVC] ЛО (В. Рутилов), Sub (Annie Phoenix )

Reply to topic
 
Author Message

admin ®

Gender: Male

Longevity: 7 years

Posts: 4725

Location: Україна

Post 15-Sep-2012 23:35

[Quote]

Война между планетами / Il pianeta errante / War Between the Planets
Год выпуска: 1966
Страна: Италия, Mercury Film International, Southern Cross Feature Film Company
Жанр: Фантастика
Перевод 1: ЛО В. Рутилов
Перевод 2: Субтитры Annie Phoenix
Продолжительность: 01:17:24
Режиссер: Антонио Маргерити / Antonio Margheriti
В ролях: Джакомо Росси-Стюарт,Омбретта Колли,Энцо Фьермонте,Элла Карин,Гоффредо Унгер
Описание: Третья часть квадралогии. Ученые пытаются предотвратить столкновения между Землей и приближающейся к ней неизвестной планетой, представляющей собой единый живой организм. Это сближение нарушает спокойную жизнь Земли, вызывая всевозможные стихийные бедствия...
Релиз

Квадрология:
Gamma I Quadrilogy vol 1-4:

1. Дикая-дикая планета / I criminali della galassia / Wild, Wild Planet 1965
2. Во власти смертельного тумана/ I diafanoidi vengono da Marte / War of the Planets 1966
3. Война между планетами / Il Planets errante 1966
4. La morte viene dal pianeta Aytin / Snow Devil 1967
Качество: DVDRip-AVC
Формат: MKV
Видео: x264, 1531 Кбит/с, 720х480@853x480 crf=20
Аудио 1: Русский ЛО (Рутилов) (AC3, 2 ch, 192 Кбит/с)
Аудио 2: Английский (AC3, 2 ch, 192 Кбит/с)
Субтитры : Русские, английские


Трейлер

Релиз

Рип с ДВД5 - sasha20072007, качество crf=20.5
Субтитры: Annie Phoenix
Русская озвучка по заказу kosmoaelita - В.Рутилов
Сравнение с исходником ДВД5
Для Украины: рип и оригинальный ДВД дополнительно залиты в файлохранилище
Для удаления и добавления дорожек в mkv используйте бесплатную mkvmerge GUI 5.80

Дополнительно

War Between the Planets (undefined) / USA (TV title)
Gamma I Quadrilogy Vol. 3 USA (series title)
Mission Wandering Planet (undefined)
Missione pianeta errante Italy (alternative spelling)
O tromos tou diastimatos Greece (transliterated ISO-LATIN-1 title)
Orion 3000 - Raumfahrt des Grauens West Germany
Planet on the Prowl (undefined)

Рецензия

MediaInfo

Общее
Уникальный идентификатор : 182894434529522632568599998424894448720 (0x89982FD2ECEE25ABAB8F324EA880A450)
Полное имя : E:\Vojna.mezhdu.planetami.1966.x264.DVDRip.(AVC).kosmoaelita.mkv
Формат : Matroska
Версия формата : Version 4 / Version 2
Размер файла : 1,06 Гбайт
Продолжительность : 1 ч. 17 м.
Общий поток : 1954 Кбит/сек
Название фильма : Война между планетами / 1966 / Il pianeta errante / rip by sasha20072007
Дата кодирования : UTC 2013-08-23 21:22:19
Программа кодирования : mkvmerge v6.3.0 ('You can't stop me!') built on Jun 28 2013 20:09:41
Библиотека кодирования : libebml v1.3.0 + libmatroska v1.4.0
Attachment : Yes / Yes / Yes
Видео
Идентификатор : 1
Формат : AVC
Формат/Информация : Advanced Video Codec
Профиль формата : High@L4.1
Параметр CABAC формата : Да
Параметр ReFrames формата : 10 кадров
Идентификатор кодека : V_MPEG4/ISO/AVC
Продолжительность : 1 ч. 17 м.
Битрейт : 1531 Кбит/сек
Ширина : 720 пикселей
Высота : 480 пикселей
Соотношение сторон : 16:9
Режим частоты кадров : Постоянный
Частота кадров : 23,976 кадра/сек
Стандарт вещания : NTSC
Цветовое пространство : YUV
Субдискретизация насыщенности : 4:2:0
Битовая глубина : 8 бит
Тип развёртки : Прогрессивная
Бит/(Пиксели*Кадры) : 0.185
Размер потока : 848 Мбайт (78%)
Библиотека кодирования : x264 core 120 r2164 da19765
Настройки программы : cabac=1 / ref=10 / deblock=1:-3:-3 / analyse=0x3:0x133 / me=umh / subme=11 / psy=1 / psy_rd=1.00:0.17 / mixed_ref=1 / me_range=24 / chroma_me=1 / trellis=2 / 8x8dct=1 / cqm=0 / deadzone=6,6 / fast_pskip=1 / chroma_qp_offset=-3 / threads=12 / sliced_threads=0 / nr=0 / decimate=0 / interlaced=0 / bluray_compat=0 / constrained_intra=0 / bframes=10 / b_pyramid=2 / b_adapt=2 / b_bias=0 / direct=3 / weightb=1 / open_gop=0 / weightp=2 / keyint=220 / keyint_min=22 / scenecut=40 / intra_refresh=0 / rc_lookahead=60 / rc=crf / mbtree=1 / crf=20.5 / qcomp=0.80 / qpmin=0 / qpmax=69 / qpstep=4 / vbv_maxrate=17500 / vbv_bufsize=14000 / crf_max=0.0 / nal_hrd=none / ip_ratio=1.20 / aq=1:0.60
Default : Да
Forced : Нет
Аудио #1
Идентификатор : 2
Формат : AC-3
Формат/Информация : Audio Coding 3
Расширение режима : CM (complete main)
Параметр Endianness формата : Big
Идентификатор кодека : A_AC3
Продолжительность : 1 ч. 17 м.
Вид битрейта : Постоянный
Битрейт : 192 Кбит/сек
Каналы : 2 канала
Расположение каналов : Front: L R
Частота : 48,0 КГц
Битовая глубина : 16 бит
Метод сжатия : С потерями
Размер потока : 106 Мбайт (10%)
Заголовок : Русский ЛО (В.Рутилов для kosmoaelita.com)
Язык : Russian
Default : Да
Forced : Нет
Аудио #2
Идентификатор : 3
Формат : AC-3
Формат/Информация : Audio Coding 3
Расширение режима : CM (complete main)
Параметр Endianness формата : Big
Идентификатор кодека : A_AC3
Продолжительность : 1 ч. 17 м.
Вид битрейта : Постоянный
Битрейт : 192 Кбит/сек
Каналы : 2 канала
Расположение каналов : Front: L R
Частота : 48,0 КГц
Битовая глубина : 16 бит
Метод сжатия : С потерями
Размер потока : 106 Мбайт (10%)
Язык : English
Default : Нет
Forced : Нет
Текст #1
Идентификатор : 4
Формат : VobSub
Идентификатор кодека : S_VOBSUB
Идентификатор кодека/Информация : The same subtitle format used on DVDs
Заголовок : Русский (Annie Phoenix) VobSub
Язык : Russian
Default : Да
Forced : Нет
Текст #2
Идентификатор : 5
Формат : UTF-8
Идентификатор кодека : S_TEXT/UTF8
Идентификатор кодека/Информация : UTF-8 Plain Text
Заголовок : Русский (Annie Phoenix) srt
Язык : Russian
Default : Нет
Forced : Нет
Текст #3
Идентификатор : 6
Формат : UTF-8
Идентификатор кодека : S_TEXT/UTF8
Идентификатор кодека/Информация : UTF-8 Plain Text
Язык : English
Default : Нет
Forced : Нет
Меню
00:00:00.000 : :Chapter 01
00:00:54.868 : :Chapter 02
00:04:54.368 : :Chapter 03
00:13:47.368 : :Chapter 04
00:21:21.368 : :Chapter 05
00:26:54.368 : :Chapter 06
00:34:38.368 : :Chapter 07
00:41:19.868 : :Chapter 08
00:50:37.901 : :Chapter 09
01:00:13.034 : :Chapter 10
01:14:48.935 : :Chapter 11
01:17:00.102 : :Chapter 12
01:17:17.602 : :Chapter 13

Скриншоты


Скринлист

cd Рип дополнительно залит на ОБЛАКО cd2


Last edited by admin on 2014-01-27 11:28; edited 1 time in total
[Profile] [PM]

Guest

Gender: Unknown

Post 24-Aug-2013 00:25 (after 11 months 8 days)

[Quote]

Добавлена озвучка от Рутилова
 

Susanin

Gender: Male

Longevity: 5 years 5 months

Posts: 824

Post 14-Oct-2016 20:52 (after 3 years 1 month)

[Quote]

http://www.blu-ray.com/movies/War-Between-the-Planets-Blu-ray/149919/
Feb 05, 2016
[Profile] [PM]

kosmoaelita

Gender: Male

Longevity: 49 years

Posts: 965

Post 15-Oct-2016 11:24 (after 14 hours)

[Quote]

Они вышли даже годом раньше. Но с немецких источников я ничего скачать не могу
http://www.board.bloodsuckerz.net/1080p-1080i/15364...64-mooi1990.html
[Profile] [PM]

CROM@G

Gender: Male

Longevity: 4 years

Posts: 2246

Location: Прибалтика

Post 15-Oct-2016 14:10 (after 2 hours 45 minutes)

[Quote]

Купите на немецком амазоне
[Profile] [PM]

kosmoaelita

Gender: Male

Longevity: 49 years

Posts: 965

Post 15-Oct-2016 14:19 (after 9 minutes)

[Quote]

Та не .
Там 60 частей по 100 мегабайт.
Нужен или премиум или качать каждую по отдельности на скорости 50 кб/с
[Profile] [PM]

Susanin

Gender: Male

Longevity: 5 years 5 months

Posts: 824

Post 20-Feb-2017 13:43 (after 4 months 4 days)

[Quote]

таки шо? Не появился блюрик?
[Profile] [PM]

kosmoaelita

Gender: Male

Longevity: 49 years

Posts: 965

Post 20-Feb-2017 18:10 (after 4 hours)

[Quote]

Пока не видно
[Profile] [PM]

AlexNT60

Gender: Male

Longevity: 6 years 7 months

Posts: 99

Location: СПб

Post 19-Oct-2018 16:55 (after 1 year 7 months)

[Quote]

Есть БДРип 720р (Il.Pianeta.Errante.1966.ITA-GER.BDRip.720p.x264).
Bидеоряд немного отличается.
Кто-нибудь хочет заняться?
https://yadi.sk/i/nuWnYFDGQKQqIg
[Profile] [PM]

kosmoaelita2

Gender: Male

Longevity: 6 years 11 months

Posts: 743

Post 19-Oct-2018 23:18 (after 6 hours)

[Quote]

А какой сенс подгонять?
Картинка совершенно без реставрации, дрожит так. что глаза вылезают. Да еще и кадр подрезан.
Совершенно другие издания.
К тому же для подгонки даже зацепиться не за что. Там итальянский и немецкий. а здесь английский. Нужно в видеоредакторе покадрово мучаться
http://screenshotcomparison.com/comparison/122690
[Profile] [PM]

AlexNT60

Gender: Male

Longevity: 6 years 7 months

Posts: 99

Location: СПб

Post 20-Oct-2018 00:48 (after 1 hour 30 minutes)

[Quote]

Просто спрашивали про БД. А так я не агитирую ни разу.
[Profile] [PM]
Display posts:    
Reply to topic

Current time is: 18-Sep 08:44

All times are UTC + 3



You cannot post new topics in this forum
You cannot reply to topics in this forum
You cannot edit your posts in this forum
You cannot delete your posts in this forum
You cannot vote in polls in this forum
You cannot attach files in this forum
You cannot download files in this forum