Гигантские клешни / Остров клешней / Island Claws / Night of the Claw (Hernan Cardenas / Эрнан Карденас) [1980, США, ужасы, фантастика, BDRip-AVC] ПД (НТВ+)

Reply to topic
DL-List and Torrent activity
Size:  1.7 GB   |    Registered:  5 years 3 months   |    Completed:  5 times

Seeder not seen: 10 months 6 days

 
   
 
 
 
Author Message

admin ®

Gender: Male

Longevity: 7 years 7 months

Posts: 4811

Post 10-Dec-2014 21:05

[Quote]

Гигантские клешни / Остров клешней / Island Claws
Страна: США
Жанр: ужасы, фантастика
Год выпуска: 1980
Продолжительность: 01:30:21
Перевод: Профессиональный (двухголосый) _ НТВ+
Режиссер: Hernan Cardenas / Эрнан Карденас
В ролях: Robert Lansing ... Moody
Steve Hanks ... Pete Adams
Nita Talbot ... Rosie
Jo McDonnell ... Jan Raines
Martina Deignan ... Lynn
Barry Nelson ... Dr. McNeal
Tony Rigo ... Joe
Raymond Forchion ... Jean (as Ray Forchion)
Dick Callinan ... Frank Raines
Dolores Sandoz ... Margarite
Frank Schuller ... Coy
Mal Jones ... Ames
John Furey ... Chuck
Richard O'Barry ... Charley (as Ric O'Feldman)
Will Knickerbocker ... Garland
Описание: Биологический эксперимент в штате Флорида идёт наперекосяк, в результате которого, восьмиметровые крабы, громко воющие и кричащие, атакуют людей…
Качество: BDRip-AVC
Формат: MKV
Видео: x264, 2005 кбит/с, 1024x576, 23.976 к/с, crf=20
Аудио 1: Русский ПД (НТВ+)(AC3, 2 ch, 192 Кбит/с)
Аудио 2: Английский (AC3, 2 ch, 256 Кбит/с)
Аудио 3: Испанский (AC3, 2 ch, 192 Кбит/с)
Работа над релизом:
Рип с BD50- sasha20072007 (kosmoaelita), crf=20
Русская дорожка найдена в сети. Релиз е180+синемаскоп
Синхрон русской дорожки - kosmoaelita



Пример русской озвучки

Дополнительно

рейтинг MPAA рекомендуется присутствие родителей
Also Known As (AKA)
Night of the Claw
Spain La garra
Greece (video title) Kavouria dolofonoi
Italy Mutazione genetica
Poland Kleszcze
USA (working title) Giant Claws
================================================
Для Украины: рип и оригинальный ДВД дополнительно залиты в файлохранилище
Для удаления,добавления и извлечения дорожек в mkv используйте бесплатную портативную mkvmerge GUI 7.1.0
Для присоединения потом дорожек к avi воспользуйтесь VirtualDubMod

Отзывы

Рецензия

Раптор 2
рецензии (496)оценкидрузьяфильмызвёзды
Здесь может быть ваша шутка про Путина, клабик и атаку слабых точек для нанесения массивного урона.
Что может быть хуже очередного второсортного фильма о животных-убийцах? Только второсортный фильм о животных-убийцах… Которые НИ РАЗУ не ассоциируются с опасностью. В смысле, «Землеройки-убийцы» (и снятый к ним полвека спустя сиквел — вот уж действительно, жизнь полна неожиданностей), «Ночь лепуса» — ну вот кто кроме трешмейкеров предположит, что какая-нибудь землеройка может кого-то убить? Вот и крабы — та же тема. Какая опасность может исходить от краба? Разве что укуси больно за щеку какого-нибудь бухого и радостного туриста, который потом крича матом шумным и смрадным будет этого несчастного бокохода с щеки скидывать.
Некий Эрнан Карденас, впрочем, поступил хитро: главным антагонистом в его единственной киноработе является ГИГАНТСКИЙ краб (вот вам и место для шуток про «атаку слабых точек», ежели кто поймёт). Но так как он появляется лишь по истечении первого часа, посмотрим, что предлагает нам лента до этой отметки: начальные двадцать минут скукоты, потом первая атака крабов (самых обычных, которые тем не менее умудряются поджечь (!) и опрокинуть (!!) автобус), потом опять трёп, какие-то прячущиеся в лесу негры, искусанная крабами до смерти собака (единственное живое существо в фильме, вызвавшее сочувствие), ну и под занавес — главный гость.
Правда, в силу ограниченности аниматронных способностей огромная образина двигается крайне медленно, но не могу не признать — с его появлением лента получила хоть какую-то смотрибельность. Потому что в остальном — ну уныло же, правда. Теоретически я могу смотреть на болтовню в местном баре, на болтовню вне бара, на интересную и остросюжетную в перспективе, но скомканную и заброшенную на полпути подсюжетную линию с местной деревенщиной, которая вооружившись всем подряд собиралась выбить из лесов прячущихся там негров. Но теоретически и не могу ведь! Смотреть интересно, когда что-то происходит, а что происходит? правильно. Плюс хотел бы учесть, что крабы с животными-убийцами у меня не ассоциируются ну вот вообще никак, хотя в этом фильме все истошно вопят при их появлении — как будто заранее знают, что они опасны. Короче, для себя я всё решил, и о данной ленте пытаюсь забыть — не как о чём-то эпически плохом (видали и похуже), а как о чём-то невыносимо скучном.
3 из 10

Лог кодирования

MediaInfo

Общее
Уникальный идентификатор : 178640411507933034109796590358259102278 (0x8664E44BB300FB3E9ED5ED5BAB5CF246)
Полное имя : F:\Island Claws 1980.x264.BDRip.AVC.Rus.kosmoaelita.mkv
Формат : Matroska
Версия формата : Version 4 / Version 2
Размер файла : 1,70 Гбайт
Продолжительность : 1 ч. 30 м.
Общий поток : 2698 Кбит/сек
Название фильма : Island Claws / 1980 / rip from BD-25 by sasha20072007 (kosmoaelita) (2014-12-10), crf=20
Дата кодирования : UTC 2014-12-10 16:52:10
Программа кодирования : mkvmerge v6.6.0 ('The Edge Of The In Between') built on Dec 1 2013 17:55:00
Библиотека кодирования : libebml v1.3.0 + libmatroska v1.4.1
Attachements : Island Claws.log
DURATION : 01:30:20.999000000
NUMBER_OF_FRAMES : 129974
NUMBER_OF_BYTES : 1393183882
_STATISTICS_WRITING_APP : mkvmerge v7.3.0 ('Nouages') 32bit built on Oct 22 2014 18:44:01
_STATISTICS_WRITING_DATE_UTC : 2014-12-10 08:22:41
_STATISTICS_TAGS : BPS DURATION NUMBER_OF_FRAMES NUMBER_OF_BYTES
Видео
Идентификатор : 1
Формат : AVC
Формат/Информация : Advanced Video Codec
Профиль формата : High@L4.1
Параметр CABAC формата : Да
Параметр ReFrames формата : 8 кадров
Идентификатор кодека : V_MPEG4/ISO/AVC
Продолжительность : 1 ч. 30 м.
Битрейт : 2005 Кбит/сек
Ширина : 1024 пикселя
Высота : 576 пикселей
Соотношение сторон : 16:9
Режим частоты кадров : Постоянный
Частота кадров : 23,976 кадра/сек
Цветовое пространство : YUV
Субдискретизация насыщенности : 4:2:0
Битовая глубина : 8 бит
Тип развёртки : Прогрессивная
Бит/(Пиксели*Кадры) : 0.142
Размер потока : 1,27 Гбайт (74%)
Заголовок : kosmoaelita
Библиотека кодирования : x264 core 130 r2273 b3065e6
Настройки программы : cabac=1 / ref=8 / deblock=1:-1:-1 / analyse=0x3:0x133 / me=umh / subme=10 / psy=1 / psy_rd=0.99:0.14 / mixed_ref=1 / me_range=24 / chroma_me=1 / trellis=2 / 8x8dct=1 / cqm=0 / deadzone=21,11 / fast_pskip=1 / chroma_qp_offset=-3 / threads=6 / lookahead_threads=1 / sliced_threads=0 / nr=0 / decimate=1 / interlaced=0 / bluray_compat=0 / constrained_intra=0 / bframes=10 / b_pyramid=2 / b_adapt=2 / b_bias=0 / direct=1 / weightb=1 / open_gop=0 / weightp=2 / keyint=210 / keyint_min=21 / scenecut=40 / intra_refresh=0 / rc_lookahead=80 / rc=crf / mbtree=1 / crf=20.0 / qcomp=0.65 / qpmin=0 / qpmax=69 / qpstep=4 / ip_ratio=1.25 / aq=1:0.90
Default : Да
Forced : Нет
Основные цвета : BT.709
Характеристики трансфера : BT.709
Коэффициенты матрицы : BT.709
Аудио #1
Идентификатор : 2
Формат : AC-3
Формат/Информация : Audio Coding 3
Расширение режима : CM (complete main)
Параметр Endianness формата : Big
Идентификатор кодека : A_AC3
Продолжительность : 1 ч. 30 м.
Вид битрейта : Постоянный
Битрейт : 192 Кбит/сек
Каналы : 2 канала
Расположение каналов : Front: L R
Частота : 48,0 КГц
Битовая глубина : 16 бит
Метод сжатия : С потерями
Размер потока : 124 Мбайт (7%)
Заголовок : Русский ПД (НТВ+)
Язык : Russian
Default : Да
Forced : Нет
Аудио #2
Идентификатор : 3
Формат : AC-3
Формат/Информация : Audio Coding 3
Расширение режима : CM (complete main)
Параметр Endianness формата : Big
Идентификатор кодека : A_AC3
Продолжительность : 1 ч. 30 м.
Вид битрейта : Постоянный
Битрейт : 256 Кбит/сек
Каналы : 2 канала
Расположение каналов : Front: L R
Частота : 48,0 КГц
Битовая глубина : 16 бит
Метод сжатия : С потерями
Размер потока : 165 Мбайт (9%)
Язык : English
Default : Нет
Forced : Нет
Аудио #3
Идентификатор : 4
Формат : AC-3
Формат/Информация : Audio Coding 3
Расширение режима : CM (complete main)
Параметр Endianness формата : Big
Идентификатор кодека : A_AC3
Продолжительность : 1 ч. 30 м.
Вид битрейта : Постоянный
Битрейт : 192 Кбит/сек
Каналы : 2 канала
Расположение каналов : Front: L R
Частота : 48,0 КГц
Битовая глубина : 16 бит
Метод сжатия : С потерями
Размер потока : 124 Мбайт (7%)
Язык : Spanish
Default : Нет
Forced : Нет
Меню
00:00:00.000 : en:1
00:04:51.708 : en:2
00:10:22.288 : en:3
00:18:34.196 : en:4
00:27:15.342 : en:5
00:39:36.249 : en:6
00:50:32.279 : en:7
01:02:57.482 : en:8
01:12:35.101 : en:9
01:28:19.377 : en:10

Скриншоты









Скринлист

cd Рип дополнительно залит на mail.ru cd2
Island Claws 1980.x264.BDRip.AVC.Rus.kosmoaelita.mkv.torrent
Torrent: Registered [ 2014-12-10 21:05 ]

Download .torrent

Download

68 KB

Status: checked
Completed: 5 times
Size: 1.7 GB
 
[Profile] [PM]

admin ®

Gender: Male

Longevity: 7 years 7 months

Posts: 4811

Post 10-Dec-2014 23:25 (after 2 hours 20 minutes)

[Quote]

На BD вышла на минуту более длинная версия.
Фрагмент 00:14:20 - 00:15:00 без перевода
[Profile] [PM]
Display posts:    
Reply to topic

Current time is: 03-Apr 01:32

All times are UTC + 3



You cannot post new topics in this forum
You cannot reply to topics in this forum
You cannot edit your posts in this forum
You cannot delete your posts in this forum
You cannot vote in polls in this forum
You cannot attach files in this forum
You can download files in this forum