Генезис II / Генезис 2 / Genesis II (Джон Левеллин Мокси / John Llewellyn Moxey) [1973 г., Фантастика, BDRip, BDRip-1080p] ЛО (kosmoaelita), СТ (Vargnatt)

Reply to topic
 
Author Message

admin ®

Gender: Male

Longevity: 8 years 2 months

Posts: 4796

Post 15-Sep-2012 21:32

[Quote]

Генезис II / Genesis II
Год выпуска: 1973
Страна: США, Warner Bros. Television, Norway Productions
Жанр: Фантастика
Продолжительность: 01:13:54
Перевод: Любительский (одноголосый) kosmoaelita по субтитрам от Vargnatt
Режиссер: Джон Левеллин Мокси / John Llewellyn Moxey
В ролях: Алекс Корд, Мэриетт Хартли, Тед Кэссиди, Перси Родригез, Харви Джейсон, Титос Вандис, Линн Марта, Маджел Бэррет
Описание: Первый фильм трилогии. Очень добротная постапокалиптическая фантастика-приключения. Ученый Дилан Хант в 1979 году ставит эксперимент по анабиозу. Он должен проснуться через несколько дней. Но в результате землетрясения он оказывается погребенным и его откапывают члены пацифистской организации "ПАКС" только через 154 года. Его встречает очень странный и пестрый мир - женщины, использующие мужчин, как рабов, суперскоростной подземный транспорт, опоясывающий всю планету...По стилю съемки и манере рассказа напоминает "Западный мир"
Трилогия:
1. Генезис II / Genesis II / 1973
2. Планета Земля / Planet Earth / 1974
3. Странный новый мир / Strange New World / 1975
Качество: BDRip
Формат: MKV
Видео: x264, 2194 Кбит/с, 720х540, crf=18
Аудио 1: Русский ЛО (AC3, 2 ch, 192 Кбит/с)
Аудио 2: Английский (AC3, 2 ch, 256 Кбит/с)
Субтитры : Русские (Vargnatt), английские
==========================
Качество: BDRip-1080p
Формат: MKV
Видео: x264, 9500 Кбит/с, 1436х1080, crf=18
Аудио 1: Русский ЛО (AC3, 2 ch, 192 Кбит/с)
Аудио 2: Английский (AC3, 2 ch, 640 Кбит/с)
Субтитры : Русские (Vargnatt), английские
==========================
Работа над релизом:
Рип с BD50 с синематика. синхр. русской дорожки и тайминг субтитров - kosmoaelita
https://www.blu-ray.com/movies/Genesis-II-and-Plane...-Blu-ray/275102/
[Genesis II / Planet Earth Blu-rayUnited States
Warner Archive Collection Warner Bros. | 1973-1974 | 2 Movies | 148 min | Not rated | Sep 29, 2020 (New Release)]


Лог кодирования

https://www.blu-ray.com/movies/Genesis-II-and-Plane...-Blu-ray/275102/
[Genesis II / Planet Earth Blu-rayUnited States
Warner Archive Collection Warner Bros. | 1973-1974 | 2 Movies | 148 min | Not rated | Sep 29, 2020 (New Release)]
PLATFORM
------------------------------
OS Code: Microsoft Windows NT 5.1.2600 Service Pack 4
OS Name: Microsoft Windows XP Service Pack 4 (x32)
Framework: 2.0.50727.3082 (v4.0)
AviSynth: AviSynth 2.60, build:Feb 20 2015 [03:16:45]
CPU Info: AMD Phenom(tm) II X4 945 Processor (~3149), 4 core(s)
RAM Total: 3324Mb
Language: RUS (1251, ",")
SystemDrive: C:
XviD4PSP
------------------------------
Version: 5.10.346.0
Created: 12.02.2015 12:46:56
AppPath: C:\Program Files\XviD4PSP 5
TempPath: H:\TEMP
FILES
------------------------------
00000.m2ts >
00000.mkv
TASK
------------------------------
Format: MKV
Duration: 01:13:54:437 (106320)
VideoDecoder: DirectShowSource2
Resolution: 1920x1080 > 720x540
Aspect: 1.3296 > 1.3333
VCodecPreset: Custom
VEncodingMode: TwoPass
VideoCodec: h264 > x264
VideoBitrate: 38802 > 2194
Quality: 0.780 > 0.235
Framerate: 23.976
SourceType: PROGRESSIVE
FieldOrder: UNKNOWN
AudioDecoder: NicDTSSource
AEncodingPreset: AC3 256k
AudioCodec: DTS > AC3
AudioBitrate: 1536 > 256
Samplerate: 48000
Channels: 2
SCRIPT
------------------------------
Import("C:\Program Files\XviD4PSP 5\dlls\AviSynth\functions\AudioFunctions.avs")
Import("C:\Program Files\XviD4PSP 5\dlls\AviSynth\functions\VideoFunctions.avs")
LoadPlugin("C:\Program Files\XviD4PSP 5\dlls\AviSynth\plugins\avss.dll")
LoadPlugin("C:\Program Files\XviD4PSP 5\dlls\AviSynth\plugins\NicAudio.dll")
video = DirectShowSource2("N:\BD-DISC\GENESIS_II_PLANET_EARTH\BDMV\STREAM\00000.m2ts", fps=23.976, preroll=15, lavs="L3", lavd="L3")
audio = NicDTSSource("H:\TEMP\5813_0.dts")
AudioDub(video, audio)
ConvertToYV12()
###[FILTERING]###
###[FILTERING]###
Crop(242, 0, -242, -0)
Spline64Resize(720, 540)
AUDIO ENCODING
------------------------------
Используем готовый файл: H:\TEMP\5813.ac3
VIDEO ENCODING
------------------------------
Encoding video to: H:\TEMP\5813.264
x264 2194kbps 720x540 23.976fps (106320 frames)
...first pass...
x264.exe: --pass 1 --bitrate 2194 --preset veryslow --tune film --level 4.1 --ref 8 --aq-strength 0.9 --deblock -2:-2 --psy-rd 0.99:0.14 --qcomp 0.65 --partitions p8x8,b8x8,i4x4,p4x4 --subme 11 --rc-lookahead 80 --keyint 210 --ipratio 1.25 --pbratio 1.17 --colorprim bt709 --transfer bt709 --colormatrix bt709 --sar 1:1 --stats "H:\TEMP\5813.log" --output NUL "H:\TEMP\5813.avs"
avs [info]: 720x540p 1:1 @ 2500000/104271 fps (cfr)
x264 [info]: using SAR=1/1
x264 [info]: using cpu capabilities: MMX2 SSE2Fast LZCNT
x264 [info]: profile Main, level 4.1
clpi_parse.c:733: Failed to open N:\BD-DISC\GENESIS_II_PLANET_EARTH\BDMV\CLIPINF\00000.clpi
x264 [info]: frame I:866 Avg QP:15.52 size: 71967
x264 [info]: frame P:21821 Avg QP:18.08 size: 25125
x264 [info]: frame B:83633 Avg QP:20.07 size: 7214
x264 [info]: consecutive B-frames: 1.8% 2.1% 7.3% 15.5% 14.4% 45.3% 7.2% 2.7% 3.7%
x264 [info]: mb I I16..4: 18.8% 0.0% 81.2%
x264 [info]: mb P I16..4: 24.8% 0.0% 0.0% P16..4: 71.9% 0.0% 0.0% 0.0% 0.0% skip: 3.3%
x264 [info]: mb B I16..4: 6.9% 0.0% 0.0% B16..8: 32.3% 0.0% 0.0% direct:26.6% skip:34.2% L0:26.1% L1:33.0% BI:40.9%
x264 [info]: final ratefactor: 17.57
x264 [info]: direct mvs spatial:99.8% temporal:0.2%
x264 [info]: coded y,uvDC,uvAC intra: 83.5% 70.2% 37.6% inter: 33.9% 23.3% 1.6%
x264 [info]: i16 v,h,dc,p: 23% 15% 44% 18%
x264 [info]: i4 v,h,dc,ddl,ddr,vr,hd,vl,hu: 19% 14% 18% 4% 11% 8% 7% 8% 10%
x264 [info]: i8c dc,h,v,p: 55% 18% 22% 5%
x264 [info]: Weighted P-Frames: Y:4.6% UV:1.9%
x264 [info]: kb/s:2189.92
x264 [total]: encoded 106320 frames, 41.76 fps, 2189.91 kb/s
...last pass...
x264.exe: --pass 2 --bitrate 2194 --preset veryslow --tune film --level 4.1 --ref 8 --aq-strength 0.9 --deblock -2:-2 --psy-rd 0.99:0.14 --qcomp 0.65 --partitions p8x8,b8x8,i4x4,p4x4 --subme 11 --rc-lookahead 80 --keyint 210 --ipratio 1.25 --pbratio 1.17 --colorprim bt709 --transfer bt709 --colormatrix bt709 --sar 1:1 --stats "H:\TEMP\5813.log" --output "H:\TEMP\5813.264" "H:\TEMP\5813.avs"
avs [info]: 720x540p 1:1 @ 2500000/104271 fps (cfr)
x264 [info]: using SAR=1/1
x264 [info]: using cpu capabilities: MMX2 SSE2Fast LZCNT
x264 [info]: profile High, level 4.1
clpi_parse.c:733: Failed to open N:\BD-DISC\GENESIS_II_PLANET_EARTH\BDMV\CLIPINF\00000.clpi
x264 [info]: frame I:866 Avg QP:16.74 size: 73582
x264 [info]: frame P:21821 Avg QP:19.02 size: 24379
x264 [info]: frame B:83633 Avg QP:21.19 size: 7420
x264 [info]: consecutive B-frames: 1.8% 2.1% 7.3% 15.5% 14.4% 45.3% 7.2% 2.7% 3.7%
x264 [info]: mb I I16..4: 5.4% 74.7% 19.9%
x264 [info]: mb P I16..4: 0.8% 0.0% 4.9% P16..4: 30.5% 40.1% 17.7% 3.6% 0.5% skip: 1.9%
x264 [info]: mb B I16..4: 0.0% 0.0% 0.3% B16..8: 37.1% 20.6% 3.7% direct: 6.0% skip:32.3% L0:44.1% L1:41.8% BI:14.2%
x264 [info]: 8x8 transform intra:27.6% inter:60.1%
x264 [info]: direct mvs spatial:97.7% temporal:2.3%
x264 [info]: coded y,uvDC,uvAC intra: 95.2% 93.8% 77.8% inter: 35.4% 25.1% 4.6%
x264 [info]: i16 v,h,dc,p: 16% 11% 10% 63%
x264 [info]: i8 v,h,dc,ddl,ddr,vr,hd,vl,hu: 14% 10% 9% 9% 12% 11% 10% 12% 13%
x264 [info]: i4 v,h,dc,ddl,ddr,vr,hd,vl,hu: 10% 6% 3% 9% 16% 16% 14% 13% 14%
x264 [info]: i8c dc,h,v,p: 46% 17% 19% 18%
x264 [info]: Weighted P-Frames: Y:4.6% UV:1.9%
x264 [info]: ref P L0: 40.3% 13.1% 20.8% 6.6% 7.2% 4.2% 5.0% 2.6% 0.4% 0.0%
x264 [info]: ref B L0: 67.6% 14.7% 7.5% 4.4% 3.2% 1.8% 0.6%
x264 [info]: ref B L1: 91.6% 8.4%
x264 [info]: kb/s:2194.16
x264 [total]: encoded 106320 frames, 8.20 fps, 2194.16 kb/s
MUXING
------------------------------
Video file: H:\TEMP\5813.264
Audio file: H:\TEMP\5815.ac3
Muxing to: N:\BD-DISC\GENESIS_II_PLANET_EARTH\BDMV\STREAM\00000.mkv
mkvmerge.exe: -o "N:\BD-DISC\GENESIS_II_PLANET_EARTH\BDMV\STREAM\00000.mkv" --default-duration 0:23.976fps -d 0 -A -S -B -T -M --no-chapters "H:\TEMP\5813.264" -a 0 -D -S -B -T -M --no-chapters --no-global-tags "H:\TEMP\5815.ac3" --disable-track-statistics-tags --engage no_cue_duration --engage no_cue_relative_position --output-charset UTF-8

MediaInfo BDRip

Общее
Уникальный идентификатор : 181730733276338799671483726689709188621 (0x88B810EC2440D17CA3A1E4480AF9E60D)
Полное имя : N:\BD-DISC\GENESIS_II_PLANET_EARTH\BDMV\STREAM\Genesis II 1973.x264.BDRip.Rus.kosmoaelita.mkv
Формат : Matroska
Версия формата : Version 4
Размер файла : 1,37 Гбайт
Продолжительность : 1 ч. 13 м.
Общий поток : 2646 Кбит/сек
Название фильма : Genesis II / Генезис 2 / 1973 / rrip from BD50 by kosmoaelita (2020-10-05), crf=17.57
Дата кодирования : UTC 2020-10-04 23:02:17
Программа кодирования : mkvmerge v6.6.0 ('The Edge Of The In Between') built on Dec 1 2013 17:55:00
Библиотека кодирования : libebml v1.3.0 + libmatroska v1.4.1
Attachments : 00000.mkv.encoding.log / poster Genesis II.jpg
Видео
Идентификатор : 1
Формат : AVC
Формат/Информация : Advanced Video Codec
Профиль формата : High@L4.1
Настройки формата : CABAC / 8 Ref Frames
Параметр CABAC формата : Да
Параметр RefFrames формата : 8 кадров
Идентификатор кодека : V_MPEG4/ISO/AVC
Продолжительность : 1 ч. 13 м.
Битрейт : 2194 Кбит/сек
Ширина : 720 пикселей
Высота : 540 пикселей
Соотношение сторон : 4:3
Режим частоты кадров : Постоянный
Частота кадров : 23,976 кадра/сек
Цветовое пространство : YUV
Субдискретизация насыщенности : 4:2:0
Битовая глубина : 8 бит
Тип развёртки : Прогрессивная
Бит/(Пиксели*Кадры) : 0.235
Размер потока : 1,11 Гбайт (81%)
Заголовок : http://kosmoaelita.com/viewtopic.php?t=151
Библиотека кодирования : x264 core 146 r2538 121396c
Настройки программы : cabac=1 / ref=8 / deblock=1:-2:-2 / analyse=0x3:0x131 / me=umh / subme=11 / psy=1 / psy_rd=0.99:0.14 / mixed_ref=1 / me_range=24 / chroma_me=1 / trellis=2 / 8x8dct=1 / cqm=0 / deadzone=21,11 / fast_pskip=1 / chroma_qp_offset=-3 / threads=6 / lookahead_threads=1 / sliced_threads=0 / nr=0 / decimate=1 / interlaced=0 / bluray_compat=0 / constrained_intra=0 / bframes=8 / b_pyramid=2 / b_adapt=2 / b_bias=0 / direct=3 / weightb=1 / open_gop=0 / weightp=2 / keyint=210 / keyint_min=21 / scenecut=40 / intra_refresh=0 / rc_lookahead=80 / rc=2pass / mbtree=1 / bitrate=2194 / ratetol=1.0 / qcomp=0.65 / qpmin=0 / qpmax=69 / qpstep=4 / cplxblur=20.0 / qblur=0.5 / ip_ratio=1.25 / aq=1:0.90
Default : Да
Forced : Нет
Цветовой диапазон : Limited
Основные цвета : BT.709
Характеристики трансфера : BT.709
Коэффициенты матрицы : BT.709
Аудио #1
Идентификатор : 2
Формат : AC-3
Формат/Информация : Audio Coding 3
Коммерческое название : Dolby Digital
Идентификатор кодека : A_AC3
Продолжительность : 1 ч. 13 м.
Вид битрейта : Постоянный
Битрейт : 192 Кбит/сек
Каналы : 2 канала
ChannelLayout : L R
Частота : 48,0 КГц
Частота кадров : 31,250 кадров/сек (1536 SPF)
Метод сжатия : С потерями
Размер потока : 101 Мбайт (7%)
Заголовок : Русский ЛО (kosmoaelita)
Язык : Russian
ServiceKind/String : Complete Main
Default : Да
Forced : Нет
Аудио #2
Идентификатор : 3
Формат : AC-3
Формат/Информация : Audio Coding 3
Коммерческое название : Dolby Digital
Идентификатор кодека : A_AC3
Продолжительность : 1 ч. 13 м.
Вид битрейта : Постоянный
Битрейт : 256 Кбит/сек
Каналы : 2 канала
ChannelLayout : L R
Частота : 48,0 КГц
Частота кадров : 31,250 кадров/сек (1536 SPF)
Метод сжатия : С потерями
Размер потока : 135 Мбайт (10%)
Язык : English
ServiceKind/String : Complete Main
Default : Нет
Forced : Нет
Текст #1
Идентификатор : 4
Формат : UTF-8
Идентификатор кодека : S_TEXT/UTF8
Идентификатор кодека/Информация : UTF-8 Plain Text
Заголовок : Русский (Vargnatt) srt
Язык : Russian
Default : Да
Forced : Нет
Текст #2
Идентификатор : 5
Формат : VobSub
Режим смешивания : zlib
Идентификатор кодека : S_VOBSUB
Идентификатор кодека/Информация : Picture based subtitle format used on DVDs
Заголовок : Русский (Vargnatt) VobSub
Язык : Russian
Default : Нет
Forced : Нет
Текст #3
Идентификатор : 6
Формат : UTF-8
Идентификатор кодека : S_TEXT/UTF8
Идентификатор кодека/Информация : UTF-8 Plain Text
Default : Нет
Forced : Нет
Меню
00:00:00.000 : en:00:00:00.000
00:14:08.931 : en:00:14:08.931
00:31:00.525 : en:00:31:00.525
00:42:48.900 : en:00:42:48.900
00:57:06.798 : en:00:57:06.798
01:13:19.312 : en:01:13:19.312
01:13:53.429 : en:01:13:53.429

MediaInfo BDRip-1080p

Общее
Уникальный идентификатор : 253189122411459084993809271629978566447 (0xBE7A7384C30A3BC0A1C9EAB87A107F2F)
Полное имя : N:\BD-DISC\GENESIS_II_PLANET_EARTH\BDMV\STREAM\Genesis II 1973.x264.BDRip.1080p.Rus.kosmoaelita.mkv
Формат : Matroska
Версия формата : Version 4
Размер файла : 5,34 Гбайт
Продолжительность : 1 ч. 13 м.
Общий поток : 10,4 Мбит/сек
Название фильма : Genesis II / Генезис 2 / 1973 / rrip from BD50 by kosmoaelita (2020-10-05), crf=18.27
Дата кодирования : UTC 2020-10-05 18:07:35
Программа кодирования : mkvmerge v6.6.0 ('The Edge Of The In Between') built on Dec 1 2013 17:55:00
Библиотека кодирования : libebml v1.3.0 + libmatroska v1.4.1
Attachments : 00000 1080.mkv.encoding.log / poster Genesis II.jpg
Видео
Идентификатор : 1
Формат : AVC
Формат/Информация : Advanced Video Codec
Профиль формата : High@L4.1
Настройки формата : CABAC / 5 Ref Frames
Параметр CABAC формата : Да
Параметр RefFrames формата : 5 кадров
Идентификатор кодека : V_MPEG4/ISO/AVC
Продолжительность : 1 ч. 13 м.
Битрейт : 9500 Кбит/сек
Ширина : 1436 пикселей
Высота : 1080 пикселей
Соотношение сторон : 4:3
Режим частоты кадров : Постоянный
Частота кадров : 23,976 кадра/сек
Цветовое пространство : YUV
Субдискретизация насыщенности : 4:2:0
Битовая глубина : 8 бит
Тип развёртки : Прогрессивная
Бит/(Пиксели*Кадры) : 0.255
Размер потока : 4,81 Гбайт (90%)
Заголовок : http://kosmoaelita.com/viewtopic.php?t=151
Библиотека кодирования : x264 core 146 r2538 121396c
Настройки программы : cabac=1 / ref=5 / deblock=1:-2:-2 / analyse=0x3:0x131 / me=umh / subme=10 / psy=1 / psy_rd=0.99:0.14 / mixed_ref=1 / me_range=32 / chroma_me=1 / trellis=2 / 8x8dct=1 / cqm=0 / deadzone=21,11 / fast_pskip=1 / chroma_qp_offset=-3 / threads=6 / lookahead_threads=1 / sliced_threads=0 / nr=0 / decimate=1 / interlaced=0 / bluray_compat=0 / constrained_intra=0 / bframes=8 / b_pyramid=2 / b_adapt=2 / b_bias=0 / direct=3 / weightb=1 / open_gop=0 / weightp=2 / keyint=210 / keyint_min=21 / scenecut=40 / intra_refresh=0 / rc_lookahead=80 / rc=2pass / mbtree=1 / bitrate=9500 / ratetol=1.0 / qcomp=0.65 / qpmin=0 / qpmax=69 / qpstep=4 / cplxblur=20.0 / qblur=0.5 / ip_ratio=1.25 / aq=1:0.90
Язык : English
Default : Да
Forced : Нет
Цветовой диапазон : Limited
Основные цвета : BT.709
Характеристики трансфера : BT.709
Коэффициенты матрицы : BT.709
Аудио #1
Идентификатор : 2
Формат : AC-3
Формат/Информация : Audio Coding 3
Коммерческое название : Dolby Digital
Идентификатор кодека : A_AC3
Продолжительность : 1 ч. 13 м.
Вид битрейта : Постоянный
Битрейт : 192 Кбит/сек
Каналы : 2 канала
ChannelLayout : L R
Частота : 48,0 КГц
Частота кадров : 31,250 кадров/сек (1536 SPF)
Метод сжатия : С потерями
Размер потока : 101 Мбайт (2%)
Заголовок : Русский ЛО (kosmoaelita)
Язык : Russian
ServiceKind/String : Complete Main
Default : Да
Forced : Нет
Аудио #2
Идентификатор : 3
Формат : AC-3
Формат/Информация : Audio Coding 3
Коммерческое название : Dolby Digital
Идентификатор кодека : A_AC3
Продолжительность : 1 ч. 13 м.
Вид битрейта : Постоянный
Битрейт : 640 Кбит/сек
Каналы : 2 канала
ChannelLayout : L R
Частота : 48,0 КГц
Частота кадров : 31,250 кадров/сек (1536 SPF)
Метод сжатия : С потерями
Размер потока : 338 Мбайт (6%)
Язык : English
ServiceKind/String : Complete Main
Default : Нет
Forced : Нет
Текст #1
Идентификатор : 4
Формат : UTF-8
Идентификатор кодека : S_TEXT/UTF8
Идентификатор кодека/Информация : UTF-8 Plain Text
Заголовок : Русский (Vargnatt) srt
Язык : Russian
Default : Да
Forced : Нет
Текст #2
Идентификатор : 5
Формат : VobSub
Режим смешивания : zlib
Идентификатор кодека : S_VOBSUB
Идентификатор кодека/Информация : Picture based subtitle format used on DVDs
Заголовок : Русский (Vargnatt) VobSub
Язык : Russian
Default : Нет
Forced : Нет
Текст #3
Идентификатор : 6
Формат : PGS
Режим смешивания : zlib
Идентификатор кодека : S_HDMV/PGS
Идентификатор кодека/Информация : Picture based subtitle format used on BDs/HD-DVDs
Заголовок : SDH
Язык : English
Default : Нет
Forced : Нет
Текст #4
Идентификатор : 7
Формат : UTF-8
Идентификатор кодека : S_TEXT/UTF8
Идентификатор кодека/Информация : UTF-8 Plain Text
Default : Нет
Forced : Нет
Меню
00:00:00.000 : en:00:00:00.000
00:14:08.931 : en:00:14:08.931
00:31:00.525 : en:00:31:00.525
00:42:48.900 : en:00:42:48.900
00:57:06.798 : en:00:57:06.798
01:13:19.312 : en:01:13:19.312
01:13:53.429 : en:01:13:53.429

Скриншоты



















Скринлист

Файл дополнительно залит на ОБЛАКО
[Profile] [PM]

kosmoaelita

Gender: Male

Longevity: 8 years 2 months

Posts: 1703

Post 05-Oct-2020 02:08 (after 8 years)

[Quote]

Замена на BDRip
[Profile] [PM]
Display posts:    
Reply to topic

Current time is: 28-Nov 23:13

All times are UTC + 3



You cannot post new topics in this forum
You cannot reply to topics in this forum
You cannot edit your posts in this forum
You cannot delete your posts in this forum
You cannot vote in polls in this forum
You cannot attach files in this forum
You cannot download files in this forum