Н.Л.О.: истинная история летающих тарелок / Unidentified Flying Objects: The True Story of Flying Saucers / UFO (Winston Jones) [1956, США, фантастика, документальный, DVDRip] АО (Трамвай-фильм)

Reply to topic
 
Author Message

admin ®

Gender: Male

Longevity: 8 years 1 month

Posts: 4794

Post 30-Nov-2014 21:43

[Quote]

Н.Л.О.: истинная история летающих тарелок / Unidentified Flying Objects: The True Story of Flying Saucers / UFO
Страна: США, Ivan Tors Productions, Ivar Productions Inc.
Жанр: фантастика, документальный
Год выпуска: 1956
Продолжительность: 01:28:21
Перевод: Авторский (одноголосый) _ Трамвай-фильм
Режиссер: Winston Jones
В ролях:
Willis Sperry ... Himself (as Capt. Willis Sperry)
Nicholas Mariana ... Himself
Delbert Newhouse ... Himself
Wendell Swanson ... Himself
Tom Towers ... Albert M. (Al) Chop
Rest of cast listed alphabetically:
Floyd Burton ... Dewey Fournet
Gene Coughlan ... Editor
Bert Freed ... Dayton Colonel
Stan Gordon ... Reporter
Marie Kenna ... Mrs. Chop
Robert Phillips ... Captain Edward Ruppelt
John A. Sanford ... Himself (archive footage) (as Dr. John A. Sandford)
William Solomon ... Scientist
Olan Soule ... (voice)
Paul Stone ... Personnel Official
Описание: Полу-документальный фильм о расследовании Альберта Чёпа, образ которого построен на реально существовавшем журналисте Томе Тауэрсе, на тему происхождения летающих тарелок. В фильме демонстрируются настоящие и самые первые документальные съемки НЛО и интервьюируются настоящие свидетели
Качество: DVDRip
Формат: MKV
Видео: x264, 1965 кбит/с, 720x440, 23.976 к/с, crf=15
Аудио 1: Русский АО (Трамвай-фильм)(AC3, 2 ch, 192 Кбит/с)
Аудио 2: Английский (AC3, 2 ch, 192 Кбит/с)
=================================================
Качество: VHSRip
Формат: MKV
Видео: x264, 1161 кбит/с, 720x548, 29.97 к/с
Аудио 1: Русский АО (Трамвай-фильм) (AC3, 2 ch, 192 Кбит/с)
Аудио 2: Английский (AC3, 2 ch, 192 Кбит/с)
Работа над релизом:
Рип с NTSC DVD5 - sasha20072007 (kosmoaelita)
Перевод на слух с англ. и озвучка - Трамвай-фильм
Работа с подгоном дорожек и прочее - kosmoaelita
DVDRip vs. VHSRip
На ДВД вырезаны две минуты любительских съемок НЛО,
которые впрочем, все равно продублированы во второй половине фильма



Пример русской озвучки

Дополнительно

слоган «You Will See Them With Your Own Eyes!»
Also Known As (AKA)
UFO
================================================
Для Украины: рип и оригинальный ДВД дополнительно залиты в файлохранилище
Для удаления,добавления и извлечения дорожек в mkv используйте бесплатную портативную mkvmerge GUI 7.1.0
Для присоединения потом дорожек к avi воспользуйтесь VirtualDubMod

Знаете ли вы, что...

Отзывы

MediaInfo 1

Общее
Уникальный идентификатор : 184185214131441592422305806572779188423 (0x8A90C82BF8086CF2BDD21B3E7E53B0C7)
Полное имя : F:\UFO The True Story of Flying Sagucers 1956 kosmoaelita\U.F.O. The True Story of Flying Sagucers 1956.x264.DVDRip.Rus.kosmoaelita.mkv
Формат : Matroska
Версия формата : Version 4 / Version 2
Размер файла : 1,45 Гбайт
Продолжительность : 1 ч. 28 м.
Общий поток : 2353 Кбит/сек
Название фильма : U.F.O. The True Story of Flying Sagucers 1956 / rip from NTSC DVD5 by sasha20072007 (kosmoaelita) (2014-11-30), crf=14.06
Дата кодирования : UTC 2014-11-30 18:27:38
Программа кодирования : mkvmerge v6.6.0 ('The Edge Of The In Between') built on Dec 1 2013 17:55:00
Библиотека кодирования : libebml v1.3.0 + libmatroska v1.4.1
Attachements : 984235--o--.jpg / unidentifiedflyingobjec.jpg / VTS_01_1_001.mkv.encoding.log
DURATION : 01:28:20.962000000
NUMBER_OF_FRAMES : 127096
NUMBER_OF_BYTES : 1302206253
_STATISTICS_WRITING_APP : mkvmerge v7.3.0 ('Nouages') 32bit built on Oct 22 2014 18:44:01
_STATISTICS_WRITING_DATE_UTC : 2014-11-30 07:25:06
_STATISTICS_TAGS : BPS DURATION NUMBER_OF_FRAMES NUMBER_OF_BYTES
Видео
Идентификатор : 1
Формат : AVC
Формат/Информация : Advanced Video Codec
Профиль формата : High@L4.1
Параметр CABAC формата : Да
Параметр ReFrames формата : 8 кадров
Идентификатор кодека : V_MPEG4/ISO/AVC
Продолжительность : 1 ч. 28 м.
Битрейт : 1965 Кбит/сек
Ширина : 720 пикселей
Высота : 440 пикселей
Соотношение сторон : 16:10
Режим частоты кадров : Постоянный
Частота кадров : 23,976 кадра/сек
Цветовое пространство : YUV
Субдискретизация насыщенности : 4:2:0
Битовая глубина : 8 бит
Тип развёртки : Прогрессивная
Бит/(Пиксели*Кадры) : 0.259
Размер потока : 1,19 Гбайт (82%)
Заголовок : ko0smoaelita
Библиотека кодирования : x264 core 130 r2273 b3065e6
Настройки программы : cabac=1 / ref=8 / deblock=1:-1:-2 / analyse=0x3:0x133 / me=umh / subme=10 / psy=1 / psy_rd=0.99:0.14 / mixed_ref=1 / me_range=24 / chroma_me=1 / trellis=2 / 8x8dct=1 / cqm=0 / deadzone=21,11 / fast_pskip=1 / chroma_qp_offset=-3 / threads=6 / lookahead_threads=1 / sliced_threads=0 / nr=0 / decimate=1 / interlaced=0 / bluray_compat=0 / constrained_intra=0 / bframes=10 / b_pyramid=2 / b_adapt=2 / b_bias=0 / direct=3 / weightb=1 / open_gop=0 / weightp=2 / keyint=210 / keyint_min=21 / scenecut=40 / intra_refresh=0 / rc_lookahead=80 / rc=2pass / mbtree=1 / bitrate=1965 / ratetol=1.0 / qcomp=0.65 / qpmin=0 / qpmax=69 / qpstep=4 / cplxblur=20.0 / qblur=0.5 / ip_ratio=1.25 / aq=1:0.90
Default : Да
Forced : Нет
Основные цвета : BT.601 NTSC
Характеристики трансфера : BT.601
Коэффициенты матрицы : BT.601
Аудио #1
Идентификатор : 2
Формат : AC-3
Формат/Информация : Audio Coding 3
Расширение режима : CM (complete main)
Параметр Endianness формата : Big
Идентификатор кодека : A_AC3
Продолжительность : 1 ч. 28 м.
Вид битрейта : Постоянный
Битрейт : 192 Кбит/сек
Каналы : 2 канала
Расположение каналов : Front: L R
Частота : 48,0 КГц
Битовая глубина : 16 бит
Метод сжатия : С потерями
Размер потока : 121 Мбайт (8%)
Заголовок : Русский АО (Трамвай фильм)
Язык : Russian
Default : Да
Forced : Нет
Аудио #2
Идентификатор : 3
Формат : AC-3
Формат/Информация : Audio Coding 3
Расширение режима : CM (complete main)
Параметр Endianness формата : Big
Идентификатор кодека : A_AC3
Продолжительность : 1 ч. 28 м.
Вид битрейта : Постоянный
Битрейт : 192 Кбит/сек
Каналы : 2 канала
Расположение каналов : Front: L R
Частота : 48,0 КГц
Битовая глубина : 16 бит
Метод сжатия : С потерями
Размер потока : 121 Мбайт (8%)
Язык : English
Default : Нет
Forced : Нет

MediaInfo 2

Общее
Уникальный идентификатор : 207959501652693894109616376855603596935 (0x9C738B0B91A1B4D98EAF1132B35A4E87)
Полное имя : F:\UFO The True Story of Flying Sagucers 1956 kosmoaelita\U.F.O. The True Story of Flying Sagucers 1956.x264.VHSRip.Rus.kosmoaelita.mkv
Формат : Matroska
Версия формата : Version 4 / Version 2
Размер файла : 1017 Мбайт
Продолжительность : 1 ч. 30 м.
Общий поток : 1576 Кбит/сек
Название фильма : U.F.O. The True Story of Flying Sagucers 1956 / VHSRip / kosmoaelita
Дата кодирования : UTC 2014-11-30 18:23:32
Программа кодирования : mkvmerge v6.6.0 ('The Edge Of The In Between') built on Dec 1 2013 17:55:00
Библиотека кодирования : libebml v1.3.0 + libmatroska v1.4.1
Видео
Идентификатор : 1
Формат : AVC
Формат/Информация : Advanced Video Codec
Профиль формата : High@L4.1
Параметр CABAC формата : Да
Параметр ReFrames формата : 8 кадров
Идентификатор кодека : V_MPEG4/ISO/AVC
Продолжительность : 1 ч. 30 м.
Битрейт : 1161 Кбит/сек
Ширина : 720 пикселей
Высота : 548 пикселей
Соотношение сторон : 4:3
Режим частоты кадров : Постоянный
Частота кадров : 29,970 кадров/сек
Цветовое пространство : YUV
Субдискретизация насыщенности : 4:2:0
Битовая глубина : 8 бит
Тип развёртки : Прогрессивная
Бит/(Пиксели*Кадры) : 0.098
Размер потока : 749 Мбайт (74%)
Заголовок : kosmoaelita
Библиотека кодирования : x264 core 130 r2273 b3065e6
Настройки программы : cabac=1 / ref=8 / deblock=1:-2:-2 / analyse=0x3:0x133 / me=umh / subme=9 / psy=1 / psy_rd=0.99:0.14 / mixed_ref=1 / me_range=24 / chroma_me=1 / trellis=2 / 8x8dct=1 / cqm=0 / deadzone=21,11 / fast_pskip=1 / chroma_qp_offset=-3 / threads=6 / lookahead_threads=1 / sliced_threads=0 / nr=0 / decimate=1 / interlaced=0 / bluray_compat=0 / constrained_intra=0 / bframes=10 / b_pyramid=2 / b_adapt=2 / b_bias=0 / direct=1 / weightb=1 / open_gop=0 / weightp=2 / keyint=210 / keyint_min=21 / scenecut=40 / intra_refresh=0 / rc_lookahead=80 / rc=crf / mbtree=1 / crf=18.0 / qcomp=0.65 / qpmin=0 / qpmax=69 / qpstep=4 / ip_ratio=1.25 / aq=1:0.90
Default : Да
Forced : Нет
Аудио #1
Идентификатор : 2
Формат : AC-3
Формат/Информация : Audio Coding 3
Расширение режима : CM (complete main)
Параметр Endianness формата : Big
Идентификатор кодека : A_AC3
Продолжительность : 1 ч. 30 м.
Вид битрейта : Постоянный
Битрейт : 192 Кбит/сек
Каналы : 2 канала
Расположение каналов : Front: L R
Частота : 48,0 КГц
Битовая глубина : 16 бит
Метод сжатия : С потерями
Размер потока : 124 Мбайт (12%)
Заголовок : Русский АО (Трамвай-фильм)
Язык : Russian
Default : Да
Forced : Нет
Аудио #2
Идентификатор : 3
Формат : MPEG Audio
Версия формата : Version 1
Профиль формата : Layer 3
Идентификатор кодека : A_MPEG/L3
Идентификатор кодека/Подсказка : MP3
Продолжительность : 1 ч. 30 м.
Вид битрейта : Постоянный
Битрейт : 192 Кбит/сек
Каналы : 2 канала
Частота : 48,0 КГц
Метод сжатия : С потерями
Размер потока : 124 Мбайт (12%)
Библиотека кодирования : LAME3.98.2ЄЄЄ+&ЏquтЕ
Язык : English
Default : Нет
Forced : Нет

Скриншоты










Скринлист 1

Скринлист 2

cd Рип дополнительно залит на mail.ru cd2


Last edited by admin on 2014-11-30 23:08; edited 3 times in total
[Profile] [PM]

admin ®

Gender: Male

Longevity: 8 years 1 month

Posts: 4794

Post 30-Nov-2014 21:53 (after 9 minutes)

[Quote]

DVDRip vs. VHSRip
На ДВД вырезаны две минуты любительских съемок НЛО, которые впрочем, все равно продублированы во второй половине фильма.
[Profile] [PM]

Guest

Gender: Unknown

Post 30-Nov-2014 23:03 (after 1 hour 10 minutes)

[Quote]

на ВХС кадр получается полнее?
 

admin ®

Gender: Male

Longevity: 8 years 1 month

Posts: 4794

Post 30-Nov-2014 23:07 (after 4 minutes)

[Quote]

Полнее, но размыто и изображение иногда стробит из-за криво убранного интерлейса 29.97.
В общем, в раздаче две версии
[Profile] [PM]

Трамвай-фильм

Gender: Male

Longevity: 6 years 2 months

Posts: 1867

Location: Россия

Post 01-Dec-2014 18:13 (after 19 hours)

[Quote]

спасибки, что подогнали под полноценный рип.
кино довольно таки не плохое, для своего времени, этакое "документально-журналисткое расследование" 1950-х
[Profile] [PM]

Guest

Gender: Unknown

Post 14-Mar-2015 09:08 (after 3 months 12 days)

[Quote]

ищется вот такой фильм
В поисках пришельцев 1987 "Киевнаучфильм"
http://ufodos.org.ua/news/v_poiskakh_prishelcev_zab.../2014-09-29-1137
тут
http://www.graphite.net.ua/catalog/det.php3?id=222&c=7&lang=1
продают, кто оттуда может спросить и отписать здесь
 

$Shorox

Gender: Male

Longevity: 7 years 10 months

Posts: 1887

Post 14-Mar-2015 09:34 (after 26 minutes)

[Quote]

Slavnus Spacedust,
Вот эта контора правоприемница "Киевнаучфильма".
Название НАЦИОНАЛЬНАЯ КИНЕМАТИКА УКРАИНЫ
Адрес 02094, КИЕВ, ул. Киото, 27
Телефон (44) 513-07-66
Graphite - барыжная контора, с неё только за большие деньги можно что-то получить.
[Profile] [PM]

Guest

Gender: Unknown

Post 14-Mar-2015 13:59 (after 4 hours)

[Quote]

НАЦИОНАЛЬНАЯ КИНЕМАТИКА УКРАИНЫ-сайт заблокирован для России, нужно украинцу говорить так как россиян они считают врагами
 

$Shorox

Gender: Male

Longevity: 7 years 10 months

Posts: 1887

Post 14-Mar-2015 14:01 (after 2 minutes)

[Quote]

Slavnus Spacedust,
Сайт cinematheque.com.ua не настроен на сервере
Сайт cinematheque.com.ua не настроен на сервере хостинга.
Адресная запись домена ссылается на наш сервер, но этот сайт не обслуживается.
Если Вы недавно добавили сайт в панель управления - подождите 15 минут и ваш сайт начнет работать.
Их дела через этот сайт решаются: graphite.net.ua
Этот разговор бессмысленный. У Вас и у меня денег не хватит, чтобы этот фильм выкупить.
Рен-ТВ, СТС, ТВ-3 эти кинокомпании подбивайте на покупку.
[Profile] [PM]

Guest

Gender: Unknown

Post 14-Mar-2015 14:32 (after 30 minutes)

[Quote]

ну вот первых цены неизвестны, во вторых фильм у нас есть и стоить будет почти 5000, думаю с плохим положением украинцев дешевле можно купить, только как всегда нужно чтобы кто-то это решил,а мы на готовое пришли
 

$Shorox

Gender: Male

Longevity: 7 years 10 months

Posts: 1887

Post 14-Mar-2015 15:04 (after 31 minute)

[Quote]

Slavnus Spacedust,
Написал им. Сейчас суббота. Если ответят, то только в понедельник.
[Profile] [PM]

$Shorox

Gender: Male

Longevity: 7 years 10 months

Posts: 1887

Post 21-Mar-2015 17:35 (after 7 days)

[Quote]

Slavnus Spacedust,
Сегодня снова суббота. Никто не ответил.
[Profile] [PM]

Guest

Gender: Unknown

Post 24-Mar-2015 21:42 (after 3 days)

[Quote]

и не будет
 
Display posts:    
Reply to topic

Current time is: 21-Oct 09:55

All times are UTC + 3



You cannot post new topics in this forum
You cannot reply to topics in this forum
You cannot edit your posts in this forum
You cannot delete your posts in this forum
You cannot vote in polls in this forum
You cannot attach files in this forum
You cannot download files in this forum