Звездный крейсер: Восстание / Starship: Rising / Starship Rising (Neil Johnson / Нил Джонсон) [2014, США, фантастика, боевик, DVDRip] ЛО (den904), СТ (kosmoaelita, koto2008)

Reply to topic
DL-List and Torrent activity
Size:  1.35 GB   |    Registered:  4 years 8 months   |    Completed:  2 times

Seeder not seen: 4 years 2 months

 
   
 
 
 
Author Message

admin ®

Gender: Male

Longevity: 6 years 11 months

Posts: 4725

Location: Україна

Post 29-Nov-2014 01:16

[Quote]

Звездный крейсер: Восстание / Starship: Rising / Starship Rising
Релиз - kosmoaelita.com
Страна: США, Circle Pictures, Empire Motion Pictures, Morphius Film
Жанр: фантастика, боевик
Год выпуска: 2014
Продолжительность: 01:29:41
Перевод: Субтитры _ koto2008
Режиссер: Neil Johnson / Нил Джонсон
В ролях:
Darren Jacobs ... John Worthy
Emii ... Jolli (as Emily Rose Morrison)
Brooke Lewis ... Staris
Claudia Wells ... Captain Savage
E.J. De La Pena ... Torgus
Ralph Guzzo ... General Gustav
Rajia Baroudi ... Czarina
Marilyn Ghigliotti ... Xarsis
Christina Marie Moses ... Diana
Lynn Ayala ... Marta
Breck Gallini ... Seethus
Christian Anderson ... Drayson
Joshua Paul Miller ... Roartak
Neil Johnson ... Overseer (voice)
Rest of cast listed alphabetically:
John Alton ... Decon Quinn
Описание: Звездный крейсер 1 - самый мощный корабль Федерации, способный разрушать целые миры. После получения приказа об уничтожении Земли, лейтенант Джон Уорти поднимает бунт на корабле и бросает вызов мощи Федерации.

Релиз

Качество: DVDRip
Формат: MKV
Видео: x264, 1294 кбит/с, 720x384, 23.976 к/с,
Аудио 1: Русский ЛО (den904) (AC3, 6 ch, 448 Кбит/с)
Аудио 2: Английский (AC3, 6 ch, 384 Кбит/с)
Субтитры : Русские (kosmoaelita, koto2008), английские
Работа над релизом:
Релиз kosmoaelita.
Видеоряд найден в сети.
Перевод с корявых англ. субтитров по заказу kosmoaelita - koto2008,
Русская озвучка по заказу kosmoaelita - den904



Пример русской озвучки и субтитров

Трейлер

Дополнительно

бюджет $3 000 000
Also Known As (AKA)
Serbia Svemirska krstarica: Ustanak
================================================
Для Украины: рип и оригинальный ДВД дополнительно залиты в файлохранилище
Для удаления,добавления и извлечения дорожек в mkv используйте бесплатную портативную mkvmerge GUI 7.1.0
Для присоединения потом дорожек к avi воспользуйтесь VirtualDubMod

Отзывы

Русская версия фильма попала в открытый доступ только лишь благодаря ворюгам из Синемании, в частности главной крысе русского инета - беглому Интерфильму. А вы теперь еще и обсираете то. что вам не должно быть доступно. Тетр абсурда и зрители дауны!

Рецензия

MediaInfo

Общее
Уникальный идентификатор : 195726860220492853929525126181970950055 (0x933F9F4212DC1AB19D22493FFBA6B7A7)
Полное имя : F:\Starship Rising 2014.x264.DVDRip.Rus.kosmoaelita.mkv
Формат : Matroska
Версия формата : Version 4 / Version 2
Размер файла : 1,35 Гбайт
Продолжительность : 1 ч. 29 м.
Режим общего битрейта : Переменный
Общий поток : 2160 Кбит/сек
Название фильма : Starship Rising / Звездный крейсер: Восстание / 2014 / Релиз kosmoaelita.com
Дата кодирования : UTC 2014-12-05 20:49:34
Программа кодирования : mkvmerge v6.6.0 ('The Edge Of The In Between') built on Dec 1 2013 17:55:00
Библиотека кодирования : libebml v1.3.0 + libmatroska v1.4.1
DURATION : 01:29:41.024000000
NUMBER_OF_FRAMES : 168157
NUMBER_OF_BYTES : 258289152
_STATISTICS_WRITING_APP : mkvmerge v7.0.0 ('Where We Going') 32bit built on Jun 9 2014 15:08:34
_STATISTICS_WRITING_DATE_UTC : 2014-06-20 14:49:16
_STATISTICS_TAGS : BPS DURATION NUMBER_OF_FRAMES NUMBER_OF_BYTES
Видео
Идентификатор : 1
Формат : AVC
Формат/Информация : Advanced Video Codec
Профиль формата : High@L4.1
Параметр CABAC формата : Да
Параметр ReFrames формата : 3 кадра
Идентификатор кодека : V_MPEG4/ISO/AVC
Продолжительность : 1 ч. 29 м.
Вид битрейта : Переменный
Битрейт : 1285 Кбит/сек
Максимальный битрейт : 40,0 Мбит/сек
Ширина : 720 пикселей
Высота : 384 пикселя
Соотношение сторон : 1,85:1
Режим частоты кадров : Постоянный
Частота кадров : 23,976 кадра/сек
Цветовое пространство : YUV
Субдискретизация насыщенности : 4:2:0
Битовая глубина : 8 бит
Тип развёртки : Прогрессивная
Бит/(Пиксели*Кадры) : 0.194
Размер потока : 824 Мбайт (59%)
Заголовок : kosmoaelita
Библиотека кодирования : x264 core 142 r2431 ac76440
Настройки программы : cabac=1 / ref=4 / deblock=1:-1:-1 / analyse=0x3:0x113 / me=umh / subme=9 / psy=1 / psy_rd=1.00:0.15 / mixed_ref=1 / me_range=18 / chroma_me=1 / trellis=2 / 8x8dct=1 / cqm=0 / deadzone=21,11 / fast_pskip=0 / chroma_qp_offset=-3 / threads=16 / lookahead_threads=1 / sliced_threads=0 / slices=4 / nr=0 / decimate=1 / interlaced=0 / bluray_compat=0 / constrained_intra=0 / bframes=3 / b_pyramid=1 / b_adapt=2 / b_bias=0 / direct=1 / weightb=1 / open_gop=0 / weightp=0 / keyint=23 / keyint_min=1 / scenecut=40 / intra_refresh=0 / rc_lookahead=23 / rc=crf / mbtree=1 / crf=18.0 / qcomp=0.60 / qpmin=10 / qpmax=51 / qpstep=4 / vbv_maxrate=40000 / vbv_bufsize=30000 / crf_max=0.0 / nal_hrd=vbr / filler=0 / ip_ratio=1.40 / aq=1:1.00
Default : Да
Forced : Нет
Основные цвета : BT.709
Характеристики трансфера : BT.709
Коэффициенты матрицы : BT.709
Аудио #1
Идентификатор : 2
Формат : AC-3
Формат/Информация : Audio Coding 3
Расширение режима : CM (complete main)
Параметр Endianness формата : Big
Идентификатор кодека : A_AC3
Продолжительность : 1 ч. 29 м.
Вид битрейта : Постоянный
Битрейт : 448 Кбит/сек
Каналы : 6 каналов
Расположение каналов : Front: L C R, Side: L R, LFE
Частота : 48,0 КГц
Битовая глубина : 16 бит
Метод сжатия : С потерями
Размер потока : 287 Мбайт (21%)
Заголовок : Русский ЛО (den904 для kosmoaelita.com)
Язык : Russian
Default : Да
Forced : Нет
Аудио #2
Идентификатор : 3
Формат : AC-3
Формат/Информация : Audio Coding 3
Расширение режима : CM (complete main)
Параметр Endianness формата : Big
Идентификатор кодека : A_AC3
Продолжительность : 1 ч. 29 м.
Вид битрейта : Постоянный
Битрейт : 384 Кбит/сек
Каналы : 6 каналов
Расположение каналов : Front: L C R, Side: L R, LFE
Частота : 48,0 КГц
Битовая глубина : 16 бит
Метод сжатия : С потерями
Размер потока : 246 Мбайт (18%)
Язык : English
Default : Нет
Forced : Нет
Текст #1
Идентификатор : 4
Формат : UTF-8
Идентификатор кодека : S_TEXT/UTF8
Идентификатор кодека/Информация : UTF-8 Plain Text
Язык : English
Default : Нет
Forced : Нет
Текст #2
Идентификатор : 5
Формат : VobSub
Режим смешивания : zlib
Идентификатор кодека : S_VOBSUB
Идентификатор кодека/Информация : The same subtitle format used on DVDs
Заголовок : Русский (kosmoaelita,koto2008) VobSub - перевод с англ. сабов
Язык : Russian
Default : Да
Forced : Нет
Текст #3
Идентификатор : 6
Формат : VobSub
Режим смешивания : zlib
Идентификатор кодека : S_VOBSUB
Идентификатор кодека/Информация : The same subtitle format used on DVDs
Заголовок : Русский (kosmoaelita,koto2008) VobSub - перевод с англ. сабов
Язык : Russian
Default : Нет
Forced : Нет
Текст #4
Идентификатор : 7
Формат : UTF-8
Идентификатор кодека : S_TEXT/UTF8
Идентификатор кодека/Информация : UTF-8 Plain Text
Заголовок : Русский (kosmoaelita,koto2008) srt - перевод с англ. сабо
Язык : Russian
Default : Нет
Forced : Нет

Пример субтитров

1
00:00:03,136 --> 00:00:08,246
Стилл найт монстэрс фильм
2
00:00:13,136 --> 00:00:18,246
Памяти Филипа Бархема
3
00:00:20,897 --> 00:00:25,000
Релиз
www.kosmoaelita.com
4
00:00:36,136 --> 00:00:38,246
Я Смотрящий.
И когда-то был человеком.
5
00:00:40,307 --> 00:00:43,167
Я наблюдаю за всем происходящим.
6
00:00:45,312 --> 00:00:48,056
Пещеры Этрона-2518.
7
00:00:48,081 --> 00:00:50,158
Место археологических раскопок "33-А".
8
00:00:50,183 --> 00:00:52,327
Точка во времени:
200 лет после восстания роботов.
-------------------------------
974
01:26:02,666 --> 01:26:04,766
"Продолжение следует.
Звездный Крейсер: Апокалипсис. "
975
01:26:04,792 --> 01:26:09,056
Пока Боги пробуждаются ото сна...
люди играют в свои игры.
976
01:26:09,092 --> 01:26:13,656
Смотрите продолжение:
"Звездный корабль: Аппокалипсис"

Скриншоты











Скринлист

cd Рип дополнительно залит на mail.ru cd2
Starship Rising 2014.x264.DVDRip.Rus.kosmoaelita.mkv.torrent
Torrent: Registered [ 2014-12-05 23:59 ]

Download .torrent

Download

54 KB

Status: checked
Completed: 2 times
Size: 1.35 GB
 


Last edited by admin on 2015-06-15 23:13; edited 11 times in total
[Profile] [PM]

admin ®

Gender: Male

Longevity: 6 years 11 months

Posts: 4725

Location: Україна

Post 29-Nov-2014 11:57 (after 10 hours)

[Quote]

Смысла немного, но для такого низкого, в 3 млн баксов бюджета - компьютеры потрудились на славу.
Хотя графика уже иногда на грани мультяшной ab
[Profile] [PM]

Guest

Gender: Unknown

Post 29-Nov-2014 12:34 (after 37 minutes)

[Quote]

Предлагаю перевод аннотации:
Звездный крейсер 1 - это самый мощный корабль Федерации, способный разрушать целые миры. После получения приказа об уничтожении Земли, флайт-лейтенант Джон Уорти поднимает бунт на корабле и бросает вызов мощи Федерации.
 

Guest

Gender: Unknown

Post 29-Nov-2014 20:19 (after 7 hours)

[Quote]

Ого, у Нила Джонсона теперь такие огромные бюджеты?? Раскрутился всё-таки, хе.
 

admin ®

Gender: Male

Longevity: 6 years 11 months

Posts: 4725

Location: Україна

Post 29-Nov-2014 22:26 (after 2 hours 7 minutes)

[Quote]

Будет озвучка от Дена
[Profile] [PM]

Guest

Gender: Unknown

Post 30-Nov-2014 12:10 (after 13 hours)

[Quote]

Интересно, для кого такое снимается? Не смог смотреть.))
 

admin ®

Gender: Male

Longevity: 6 years 11 months

Posts: 4725

Location: Україна

Post 06-Dec-2014 00:00 (after 5 days)

[Quote]

Добавлена русская озвучка от den904
[Profile] [PM]

admin ®

Gender: Male

Longevity: 6 years 11 months

Posts: 4725

Location: Україна

Post 14-Jun-2015 10:49 (after 6 months 9 days)

[Quote]

Фильм выпустили на блю-рее. Полностью перемонтировали. Сильно изменили начало фильма. Некоторые сцены вырезали, некоторые добавили.
[Profile] [PM]

admin ®

Gender: Male

Longevity: 6 years 11 months

Posts: 4725

Location: Україна

Post 15-Jun-2015 23:18 (after 1 day 12 hours)

[Quote]

BDRip
http://kosmoaelita.com/viewtopic.php?t=1860
[Profile] [PM]
Display posts:    
Reply to topic

Current time is: 20-Aug 08:26

All times are UTC + 3



You cannot post new topics in this forum
You cannot reply to topics in this forum
You cannot edit your posts in this forum
You cannot delete your posts in this forum
You cannot vote in polls in this forum
You cannot attach files in this forum
You can download files in this forum