Вторжение обитателей летающих тарелок / Invasion of the Saucer Men (Эдвард Л. Кан / Edward L. Cahn) [1957 г., Фантастика, ужас, DVDRip-AVC] ЛО (Трамвай-фильм)

Reply to topic
 
Author Message

admin ®

Gender: Male

Longevity: 7 years 3 months

Posts: 4812

Post 15-Sep-2012 20:39

[Quote]

Вторжение обитателей летающих тарелок / Invasion of the Saucer Men
Год выпуска: 1957
Страна: США, Malibu Productions
Жанр: Фантастика, ужас
Продолжительность: 01:06:32
Перевод: Любительский (одноголосый) Трамвай-фильм
Режиссер: Эдвард Л. Кан / Edward L. Cahn
В ролях: Стивен Террелл, Глория Кастильо, Фрэнк Горшин, Реймонд Хаттон, Лин Осборн, Русс Бендер
Описание: Джонни повёз Джоан на свидание и в темноте сбил на дороге маленького зеленокожего инопланетянина. Парочка естественно сразу заявила в полицию, но тело пришельца не нашли. Зато начали находить трупы местных жителей….
Качество: DVDRip-AVC
Формат: MKV
Видео: x264, 2004 Кбит/с, 720х536 crf=18.5
Аудио 1: Русский (МР3, 2 ch, 96 Кбит/с)
Аудио 2: Английский (AC3, 2 ch, 192 Кбит/с)
Аудио 3: Итальянский (AC3, 2 ch, 224 Кбит/с)
Субтитры : Польские, итальянские

Релиз

Рип с ДВД5 и монтаж - sasha20072007, качество рипа - crf=18.5
Озвучка - Трамвай-фильм
Для Украины: рип и оригинальный ДВД дополнительно залиты в файлохранилище
Для удаления и добавления дорожек в mkv используйте бесплатную mkvmerge GUI 5.80

Дополнительно

Другие названия:
Hell Creatures USA (working title)
Invasion of the Hell Creatures UK (new title)
Invasion of the Saucer-Men USA (poster title)
Invasori dall'altro mondo Italy (imdb display title)
Krypande handen Sweden (new title)
La invasión de los hombres del espacio Spain (new title)
Слоган «SEE earth attacked by flying saucers!»

Рецензия

Они просто хотели вступить в контакт
Говорить о художественной ценности этого творения не имеет смысла — ее просто нет. Тинэйджеры, играемые тридцатилетними людьми, солдафоны, весь фильм борющиеся с припаркованным «летающим блюдцем». Ну и парни из космоса, которые просто искали, с кем бы потусоваться субботним вечером (иначе, зачем бы им накачивать алкоголем каждого встречного?). Очевидным плюсом этого фильма является его хронометраж — 69 минут — это то, что надо.
Но рецензия положительная, да. И неспроста. Поделка для автокинотеатра, лента, сделанная лишь для того, чтобы в далеком 57-м году какой-нибудь Бобби, заплатив сущие центы, мог свозить свою девушку на вечерний сеанс и остаться с ней в машине на час под благовидным предлогом. Получается настоящая американская история за кадром. История пятидесятилетней давности. Этим и очаровывают (меня, по крайней мере) эти дешевые, ни на что не претендующие, старые фильмы про инопланетян, монстров и прочую нечисть.
Отдельного упоминания заслуживает студия, на которой был снят фильм — «American International Pictures». На протяжении без малого трех десятилетий она была поставщиком мейнстримового низкобюджетного кино, ориентированного на молодежную аудиторию. Здесь начинал гуру этого жанра — великий и ужасный Роджер Корман. Здесь же создавались практически все значимые «exploitation movies».
Кстати, инопланетяне из фильма все-таки оставили свой след в современной масс-культуре — вспомните зеленокожего монстра Морбо из «Футурамы». По-моему, одно лицо.

MediaInfo

Общее
Уникальный идентификатор : 197334056735360547228117915370003725910 (0x9475282A08F9743DAD2E87D5C3917E56)
Полное имя : E:\Vtorzhenie.obitatelej.letajushchih.tarelok.1957.x264.DVDRip.sasha200720.mkv
Формат : Matroska
Версия формата : Version 2
Размер файла : 1,19 Гбайт
Продолжительность : 1 ч. 6 м.
Общий поток : 2567 Кбит/сек
Название фильма : Invasion of the Saucer Men / 1957 / rip by sasha20072007
Дата кодирования : UTC 2012-04-13 02:22:00
Программа кодирования : mkvmerge v5.5.0 ('Healer') built on Apr 10 2012 09:33:48
Библиотека кодирования : libebml v1.2.3 + libmatroska v1.3.0
Видео
Идентификатор : 1
Формат : AVC
Формат/Информация : Advanced Video Codec
Профиль формата : High@L4.1
Параметр CABAC формата : Да
Параметр ReFrames формата : 10 кадров
Идентификатор кодека : V_MPEG4/ISO/AVC
Битрейт : 2004 Кбит/сек
Ширина : 720 пикселей
Высота : 536 пикселей
Соотношение сторон : 4:3
Режим частоты кадров : Переменный
Частота кадров в оригинале : 25,000 кадров/сек
Цветовое пространство : YUV
Субдискретизация насыщенности : 4:2:0
Битовая глубина : 8 бит
Тип развёртки : Прогрессивная
Библиотека кодирования : x264 core 120 r2164 da19765
Настройки программы : cabac=1 / ref=10 / deblock=1:-3:-3 / analyse=0x3:0x133 / me=umh / subme=11 / psy=1 / psy_rd=1.00:0.15 / mixed_ref=1 / me_range=24 / chroma_me=1 / trellis=2 / 8x8dct=1 / cqm=0 / deadzone=6,6 / fast_pskip=1 / chroma_qp_offset=-3 / threads=12 / sliced_threads=0 / nr=0 / decimate=0 / interlaced=0 / bluray_compat=0 / constrained_intra=0 / bframes=10 / b_pyramid=2 / b_adapt=2 / b_bias=0 / direct=3 / weightb=1 / open_gop=0 / weightp=2 / keyint=220 / keyint_min=22 / scenecut=40 / intra_refresh=0 / rc_lookahead=60 / rc=crf / mbtree=1 / crf=18.5 / qcomp=0.80 / qpmin=0 / qpmax=69 / qpstep=4 / vbv_maxrate=17500 / vbv_bufsize=14000 / crf_max=0.0 / nal_hrd=none / ip_ratio=1.20 / aq=1:0.60
Язык : Italian
Default : Да
Forced : Нет
Аудио #1
Идентификатор : 2
Формат : MPEG Audio
Версия формата : Version 1
Профиль формата : Layer 3
Режим : Joint stereo
Расширение режима : Intensity Stereo + MS Stereo
Идентификатор кодека : A_MPEG/L3
Идентификатор кодека/Подсказка : MP3
Продолжительность : 1 ч. 6 м.
Вид битрейта : Постоянный
Битрейт : 96,0 Кбит/сек
Каналы : 2 канала
Частота : 44,1 КГц
Метод сжатия : С потерями
Размер потока : 45,7 Мбайт (4%)
Заголовок : Русский (Трамвай-фильм)
Язык : Russian
Default : Да
Forced : Нет
Аудио #2
Идентификатор : 3
Формат : AC-3
Формат/Информация : Audio Coding 3
Расширение режима : CM (complete main)
Параметр Endianness формата : Big
Идентификатор кодека : A_AC3
Продолжительность : 1 ч. 6 м.
Вид битрейта : Постоянный
Битрейт : 192 Кбит/сек
Каналы : 2 канала
Расположение каналов : Front: L R
Частота : 48,0 КГц
Битовая глубина : 16 бит
Метод сжатия : С потерями
Размер потока : 91,4 Мбайт (7%)
Язык : English
Default : Нет
Forced : Нет
Аудио #3
Идентификатор : 4
Формат : AC-3
Формат/Информация : Audio Coding 3
Профиль формата : Dolby Digital
Расширение режима : CM (complete main)
Параметр Endianness формата : Big
Идентификатор кодека : A_AC3
Продолжительность : 1 ч. 6 м.
Вид битрейта : Постоянный
Битрейт : 224 Кбит/сек
Каналы : 2 канала
Расположение каналов : Front: L R
Частота : 48,0 КГц
Битовая глубина : 16 бит
Метод сжатия : С потерями
Размер потока : 107 Мбайт (9%)
Язык : Italian
Default : Нет
Forced : Нет
Текст #1
Идентификатор : 5
Формат : UTF-8
Идентификатор кодека : S_TEXT/UTF8
Идентификатор кодека/Информация : UTF-8 Plain Text
Язык : Polish
Default : Да
Forced : Нет
Текст #2
Идентификатор : 6
Формат : VobSub
Идентификатор кодека : S_VOBSUB
Идентификатор кодека/Информация : The same subtitle format used on DVDs
Язык : Italian
Default : Нет
Forced : Нет
Меню
00:00:00.000 : :Chapter 01
00:04:13.800 : :Chapter 02
00:06:36.600 : :Chapter 03
00:13:47.400 : :Chapter 04
00:23:21.600 : :Chapter 05
00:30:15.600 : :Chapter 06
00:40:54.600 : :Chapter 07
00:48:24.600 : :Chapter 08
00:52:30.000 : :Chapter 09
00:57:15.600 : :Chapter 10
01:01:16.800 : :Chapter 11
01:05:16.200 : :Chapter 12

Скриншоты


cd Рип дополнительно залит на mail.ru cd2
[Profile] [PM]
Quick Reply

Name:

            
Heads necessary to send messages to enable JavaScript
Display posts:    
Reply to topic

Current time is: 13-Dec 03:02

All times are UTC + 3



You cannot post new topics in this forum
You can reply to topics in this forum
You cannot edit your posts in this forum
You cannot delete your posts in this forum
You cannot vote in polls in this forum
You cannot attach files in this forum
You cannot download files in this forum