Последняя надежда Земли / Last Exit to Earth (Katt Shea / Кэтт Ши) [1996, фантастика, драма, SATRip] ЛО (datynet), СТ (kosmoaelita,Severnyj)

Ответить на тему
 
Автор Сообщение

admin ®

Пол: Мужской

Стаж: 5 лет 2 месяца

Сообщений: 4748

Откуда: Україна

Создавать темы 25-Ноя-2014 19:22

[Цитировать]

Последняя надежда Земли / Last Exit to Earth
Релиз - kosmoaelita. com
Год выпуска: 1996
Страна: США, Concorde-New Horizons, Showtime Networks Inc.
Жанр: фантастика, драма
Продолжительность: 01:26:52
Перевод: ЛО datynet по переводу на слух с англ. от Severnyj
Режиссёр: Katt Shea / Кэтт Ши
В ролях:
Kim Greist ... Eve (as Kimberly Griest)
Costas Mandylor ... Jaid
Amy Hathaway ... Kali
David Groh ... Bendix
Hilary Shepard ... Lilith
Michael Cudlitz ... Hardester
Lisa Banes ... Elder
JoNell Kennedy ... Hera (as Jonell Kennedy)
Zoe Trilling ... Goldfinger
Cedrick Terrel ... Yost (as Cedrick Terrell)
Rosemary Dunsmore ... Delivery Room Doctor
Robin Frates Corbett ... Pregnant Woman
Lily Knight ... Eppe
Gregory Millar ... Moorhouse
Robert Peters ... First Mate
Описание:Более низкобюджетная и кровавая развидность польской "Сексмиссии"
2500-й год. После Великой Феминистской Революции на планете осталась одна беременная женщина, которая должна была родить мальчика, но последняя надежда на будущее умерла. Одна из женщин-ученых сомневается в том, что мир без мужчин лучше, чем с «этими агрессивными животными, отрубающими людям головы, насилующими женщин и детей, катающимися на машинах с бензиновыми двигателями». На машине времени вместе с тремя подругами она проникла на космолет из 22-го столетия, где в то время ситуация была крайне напряжена. В результате опасный вирус и парочка психопатов попадает в ее родной 2500-й год...

Релиз

Качество: SATRip
Формат: MKV
Видео: XviD, 992 кбит/с, 512x384, 23.976 к/с,
Аудио 2: Русский ЛО (datynet - Антон Агапов)(AC3, 2 ch, 192 Кбит/с)
Аудио 2: Английский (MP3, 2 ch, 128 Кбит/с)
Субтитры : Русские (Severnyj)
Работа над релизом:
Релиз kosmoaelita.
Видеоряд найден в сети.
Перевод на слух с англ. по заказу kosmoaelita - Severnyj
Русская озвучка по заказу kosmoaelita - datynet (Антон Агапов)



Пример русской озвучки

Дополнительно

рейтинг MPAA лицам до 17 лет обязательно присутствие взрослого
Also Known As (AKA)
Roger Corman Presents 'Last Exit to Earth'
Germany Letzte Ausfahrt Erde
Greece Last Exit to Earth
Greece (video title) Teleftaia exodos
================================================
Для Украины: рип и оригинальный ДВД дополнительно залиты в файлохранилище
Для удаления,добавления и извлечения дорожек в mkv используйте бесплатную портативную mkvmerge GUI 7.1.0
Для присоединения потом дорожек к avi воспользуйтесь VirtualDubMod

Рецензия

MediaInfo

Общее
Уникальный идентификатор : 203959411697408800428086727934000890827 (0x997127623D49C502A26D8113416A03CB)
Полное имя : N:\Last exit to Earth 1996.Xvid.SATRip.Rus.kosmoaelita.mkv
Формат : Matroska
Версия формата : Version 4 / Version 2
Размер файла : 818 Мбайт
Продолжительность : 1 ч. 26 м.
Общий поток : 1317 Кбит/сек
Название фильма : Последняя надежда Земли / Last Exit to Earth, 1996г / Релиз kosmoaelita.com
Дата кодирования : UTC 2014-12-09 00:31:30
Программа кодирования : mkvmerge v6.6.0 ('The Edge Of The In Between') built on Dec 1 2013 17:55:00
Библиотека кодирования : libebml v1.3.0 + libmatroska v1.4.1
Видео
Идентификатор : 1
Формат : MPEG-4 Visual
Профиль формата : Advanced Simple@L5
Параметр BVOP формата : Да
Параметр QPel формата : Нет
Параметр GMC формата : Без точки перехода
Параметр матрицы формата : Выборочная
Идентификатор кодека : V_MS/VFW/FOURCC / XVID
Идентификатор кодека/Подсказка : XviD
Продолжительность : 1 ч. 26 м.
Битрейт : 971 Кбит/сек
Ширина : 512 пикселей
Высота : 384 пикселя
Соотношение сторон : 4:3
Режим частоты кадров : Постоянный
Частота кадров : 23,976 кадра/сек
Цветовое пространство : YUV
Субдискретизация насыщенности : 4:2:0
Битовая глубина : 8 бит
Тип развёртки : Прогрессивная
Метод сжатия : С потерями
Бит/(Пиксели*Кадры) : 0.206
Размер потока : 603 Мбайт (74%)
Заголовок : kosmoaelita
Библиотека кодирования : XviD 1.1.2 (UTC 2006-11-01)
Default : Да
Forced : Нет
Аудио #1
Идентификатор : 2
Формат : AC-3
Формат/Информация : Audio Coding 3
Расширение режима : CM (complete main)
Параметр Endianness формата : Big
Идентификатор кодека : A_AC3
Продолжительность : 1 ч. 26 м.
Вид битрейта : Постоянный
Битрейт : 192 Кбит/сек
Каналы : 2 канала
Расположение каналов : Front: L R
Частота : 48,0 КГц
Битовая глубина : 16 бит
Метод сжатия : С потерями
Размер потока : 119 Мбайт (15%)
Заголовок : Русский ЛО (datynet - Антон Агапов) для kosmoaelita.com
Язык : Russian
Default : Да
Forced : Нет
Аудио #2
Идентификатор : 3
Формат : MPEG Audio
Версия формата : Version 1
Профиль формата : Layer 3
Режим : Joint stereo
Расширение режима : MS Stereo
Идентификатор кодека : A_MPEG/L3
Идентификатор кодека/Подсказка : MP3
Продолжительность : 1 ч. 26 м.
Вид битрейта : Постоянный
Битрейт : 128 Кбит/сек
Каналы : 2 канала
Частота : 48,0 КГц
Метод сжатия : С потерями
Размер потока : 79,5 Мбайт (10%)
Библиотека кодирования : LAME3.97b
Настройки программы : -m j -V 4 -q 2 -lowpass 17 -b 128
Язык : English
Default : Нет
Forced : Нет
Текст #1
Идентификатор : 4
Формат : VobSub
Режим смешивания : zlib
Идентификатор кодека : S_VOBSUB
Идентификатор кодека/Информация : The same subtitle format used on DVDs
Заголовок : Русский (kosmoaelita,Severnyj) VobSub - перевод на слух с англ.
Язык : Russian
Default : Да
Forced : Нет
Текст #2
Идентификатор : 5
Формат : VobSub
Режим смешивания : zlib
Идентификатор кодека : S_VOBSUB
Идентификатор кодека/Информация : The same subtitle format used on DVDs
Заголовок : Русский (kosmoaelita,Severnyj) VobSub - перевод на слух с англ.
Язык : Russian
Default : Нет
Forced : Нет
Текст #3
Идентификатор : 6
Формат : UTF-8
Идентификатор кодека : S_TEXT/UTF8
Идентификатор кодека/Информация : UTF-8 Plain Text
Заголовок : Русский (kosmoaelita,Severnyj) srt - перевод на слух с англ.
Язык : Russian
Default : Нет
Forced : Нет

Пример субтитров

1
00:00:00,375 --> 00:00:03,673
Шоутайм представляет
2
00:00:06,897 --> 00:00:11,000
Релиз
www.kosmoaelita.com
3
00:00:35,959 --> 00:00:39,008
Роджер Корман представляет
4
00:00:47,535 --> 00:00:48,935
Нью Хорайзонс
5
00:00:51,832 --> 00:00:57,343
Кимберли Грейст, Костас Мэндилор,
Эми Хэтэуэй
6
00:00:57,701 --> 00:00:59,801
"Последняя надежда Земли"
(Last Exit to Earth, 1996г)
7
00:01:00,746 --> 00:01:03,762
2500 год нашей эры.
8
00:01:04,845 --> 00:01:07,889
После великой революции феминисток.
-------------------------
689
01:24:52,203 --> 01:24:53,664
Ты справилась!
690
01:25:11,570 --> 01:25:13,570
Что?
691
01:25:13,660 --> 01:25:17,327
Ну, похоже смена обстановки
на более здоровую помогла.
692
01:25:17,527 --> 01:25:19,527
У меня тоже будет ребёнок.

Скриншоты















Скринлист



Последний раз редактировалось: admin (2014-12-09 11:02), всего редактировалось 6 раз(а)
[Профиль] [ЛС]

admin ®

Пол: Мужской

Стаж: 5 лет 2 месяца

Сообщений: 4748

Откуда: Україна

Создавать темы 26-Ноя-2014 00:38 (спустя 5 часов)

[Цитировать]

Разновидность польской Сексмиссии, но с морем крови и без элементов комедии.
Голливуд, есть голливуд ac
[Профиль] [ЛС]

Гость

Пол: Не указан

Создавать темы 26-Ноя-2014 08:07 (спустя 7 часов)

[Цитировать]

Это не Голливуд, это инди, кормановская студия. Заинтриговало.)
 

Гость

Пол: Не указан

Создавать темы 26-Ноя-2014 13:50 (спустя 5 часов)

[Цитировать]

Хм, ну и кино.) Смотрю и удивляюсь.)
 

admin ®

Пол: Мужской

Стаж: 5 лет 2 месяца

Сообщений: 4748

Откуда: Україна

Создавать темы 26-Ноя-2014 14:46 (спустя 56 минут)

[Цитировать]

По теории должен быть кассетный авторский перевод. Не верю, что этот фильм пропустили. Концовку фильма сильно смазали.
[Профиль] [ЛС]

admin ®

Пол: Мужской

Стаж: 5 лет 2 месяца

Сообщений: 4748

Откуда: Україна

Создавать темы 09-Дек-2014 11:01 (спустя 12 дней)

[Цитировать]

Добавлена русская озвучка
[Профиль] [ЛС]
Быстрый ответ

Имя:

            
Для отправки сообщений необходимо включить JavaScript
Показать сообщения:    
Ответить на тему

Текущее время: 22-Ноя 19:57

Часовой пояс: UTC + 3:30



Вы не можете начинать темы
Вы можете отвечать на сообщения
Вы не можете редактировать свои сообщения
Вы не можете удалять свои сообщения
Вы не можете голосовать в опросах
Вы не можете прикреплять файлы к сообщениям
Вы не можете скачивать файлы