Планета Земля / Planet Earth (Марк Дэниелс / Marc Daniels) [1974, США, Фантастика, BDRip, BDRip-1080p] ЛО (kosmoaelita), СТ (Vargnatt)

Reply to topic
 
Author Message

admin ®

Gender: Male

Longevity: 8 years 1 month

Posts: 4794

Post 15-Sep-2012 12:11

[Quote]

Планета Земля / Planet Earth
Страна: США, Warner Bros. Television
Жанр: Фантастика
Год выпуска: 1974
Продолжительность: 01:13:49
Перевод: Любительский (одноголосый) kosmoaelita по субтитрам от Vargnatt
Режиссер: Марк Дэниелс / Marc Daniels
В ролях: Джон Сэксон, Джанет Марголин, Тед Кэссиди, Кристофер Кэри, Диана Малдур, Сэлли Кемп, Johana De Winter, Клер Бреннен, Корина Камачо, Маджел Бэррет
Описание: Второй фильм трилогии. Продолжение очень добротной постапокалиптической фантастики-приключений. Ученый Дилан Хант в 1979 году ставит эксперимент по анабиозу. Он должен проснуться через несколько дней. Но в результате землетрясения он оказывается погребенным и его откапывают члены пацифистской организации "ПАКС" только через 154 года. Его встречает очень странный и пестрый постапокаллиптический мир - женщины, использующие мужчин, как рабов, мутировавшие солдаты, суперскоростной подземный транспорт, опоясывающий всю планету...По стилю съемки и манере рассказа напоминает "Западный мир"

Трилогия:
1. Генезис II / Genesis II / 1973
2. Планета Земля / Planet Earth / 1974
3. Странный новый мир / Strange New World / 1975
Качество: BDRip
Формат: MKV
Видео: x264, 2194 Кбит/с, 720х540 crf=18
Аудио 1: Русский ЛО (AC3, 2 ch, 192 Кбит/с)
Аудио 2: Английский (AC3, 2 ch, 256 Кбит/с)
Субтитры : Русские (Vargnatt), английские
=======================================
Качество: BDRip-1080p
Формат: MKV
Видео: x264, 9000 Кбит/с, 1436х1080 crf=18
Аудио 1: Русский ЛО (AC3, 2 ch, 192 Кбит/с)
Аудио 2: Английский (AC3, 2 ch, 640 Кбит/с)
Субтитры : Русские (Vargnatt), английские
======================================
Работа над релизом:
Рип с BD50 с синематика. синхр. русской дорожки и тайминг субтитров - kosmoaelita
https://www.blu-ray.com/movies/Genesis-II-and-Plane...-Blu-ray/275102/
[Genesis II / Planet Earth Blu-rayUnited States
Warner Archive Collection Warner Bros. | 1973-1974 | 2 Movies | 148 min | Not rated | Sep 29, 2020 (New Release)]



Лог кодирования

https://www.blu-ray.com/movies/Genesis-II-and-Plane...-Blu-ray/275102/
[Genesis II / Planet Earth Blu-rayUnited States
Warner Archive Collection Warner Bros. | 1973-1974 | 2 Movies | 148 min | Not rated | Sep 29, 2020 (New Release)]
PLATFORM
------------------------------
OS Code: Microsoft Windows NT 5.1.2600 Service Pack 4
OS Name: Microsoft Windows XP Service Pack 4 (x32)
Framework: 2.0.50727.3082 (v4.0)
AviSynth: AviSynth 2.60, build:Feb 20 2015 [03:16:45]
CPU Info: AMD Phenom(tm) II X4 945 Processor (~3149), 4 core(s)
RAM Total: 3324Mb
Language: RUS (1251, ",")
SystemDrive: C:
XviD4PSP
------------------------------
Version: 5.10.346.0
Created: 12.02.2015 12:46:56
AppPath: C:\Program Files\XviD4PSP 5
TempPath: H:\TEMP
FILES
------------------------------
00001.m2ts >
00001.mkv
TASK
------------------------------
Format: MKV
Duration: 01:13:49:432 (106200)
VideoDecoder: DirectShowSource2
Resolution: 1920x1080 > 720x540
Aspect: 1.3296 > 1.3333
VCodecPreset: Custom
VEncodingMode: TwoPass
VideoCodec: h264 > x264
VideoBitrate: 38933 > 2194
Quality: 0.783 > 0.235
Framerate: 23.976
SourceType: PROGRESSIVE
FieldOrder: UNKNOWN
SCRIPT
------------------------------
Import("C:\Program Files\XviD4PSP 5\dlls\AviSynth\functions\AudioFunctions.avs")
Import("C:\Program Files\XviD4PSP 5\dlls\AviSynth\functions\VideoFunctions.avs")
LoadPlugin("C:\Program Files\XviD4PSP 5\dlls\AviSynth\plugins\avss.dll")
LoadPlugin("C:\Program Files\XviD4PSP 5\dlls\AviSynth\plugins\NicAudio.dll")
DirectShowSource2("N:\BD-DISC\GENESIS_II_PLANET_EARTH\BDMV\STREAM\00001.m2ts", fps=23.976, preroll=15, lavs="L3", lavd="L3")
ConvertToYV12()
###[FILTERING]###
###[FILTERING]###
Crop(242, 0, -242, -0)
Spline64Resize(720, 540)
VIDEO ENCODING
------------------------------
Encoding video to: N:\BD-DISC\GENESIS_II_PLANET_EARTH\BDMV\STREAM\00001.mkv
x264 2194kbps 720x540 23.976fps (106200 frames)
...first pass...
x264.exe: --pass 1 --bitrate 2194 --preset veryslow --tune film --level 4.1 --ref 8 --aq-strength 0.9 --deblock -2:-2 --psy-rd 0.99:0.14 --qcomp 0.65 --partitions p8x8,b8x8,i4x4,p4x4 --subme 11 --rc-lookahead 80 --keyint 210 --ipratio 1.25 --pbratio 1.17 --colorprim bt709 --transfer bt709 --colormatrix bt709 --sar 1:1 --stats "N:\BD-DISC\GENESIS_II_PLANET_EARTH\BDMV\STREAM\00001.log" --output NUL "H:\TEMP\5814.avs"
avs [info]: 720x540p 1:1 @ 2500000/104271 fps (cfr)
x264 [info]: using SAR=1/1
x264 [info]: using cpu capabilities: MMX2 SSE2Fast LZCNT
x264 [info]: profile Main, level 4.1
clpi_parse.c:733: Failed to open N:\BD-DISC\GENESIS_II_PLANET_EARTH\BDMV\CLIPINF\00001.clpi
x264 [info]: frame I:963 Avg QP:16.17 size: 75157
x264 [info]: frame P:22779 Avg QP:18.68 size: 25709
x264 [info]: frame B:82458 Avg QP:20.79 size: 6672
x264 [info]: consecutive B-frames: 2.8% 2.7% 6.6% 15.0% 15.5% 45.5% 6.9% 2.5% 2.6%
x264 [info]: mb I I16..4: 16.7% 0.0% 83.3%
x264 [info]: mb P I16..4: 19.7% 0.0% 0.0% P16..4: 77.1% 0.0% 0.0% 0.0% 0.0% skip: 3.2%
x264 [info]: mb B I16..4: 5.2% 0.0% 0.0% B16..8: 31.6% 0.0% 0.0% direct:25.9% skip:37.3% L0:25.2% L1:32.3% BI:42.4%
x264 [info]: final ratefactor: 17.90
x264 [info]: direct mvs spatial:99.8% temporal:0.2%
x264 [info]: coded y,uvDC,uvAC intra: 84.3% 67.4% 32.7% inter: 33.7% 21.4% 1.6%
x264 [info]: i16 v,h,dc,p: 23% 16% 42% 19%
x264 [info]: i4 v,h,dc,ddl,ddr,vr,hd,vl,hu: 17% 16% 17% 4% 11% 8% 8% 8% 10%
x264 [info]: i8c dc,h,v,p: 54% 18% 22% 6%
x264 [info]: Weighted P-Frames: Y:5.1% UV:1.9%
x264 [info]: kb/s:2182.11
x264 [total]: encoded 106200 frames, 36.98 fps, 2182.11 kb/s
...last pass...
x264.exe: --pass 2 --bitrate 2194 --preset veryslow --tune film --level 4.1 --ref 8 --aq-strength 0.9 --deblock -2:-2 --psy-rd 0.99:0.14 --qcomp 0.65 --partitions p8x8,b8x8,i4x4,p4x4 --subme 11 --rc-lookahead 80 --keyint 210 --ipratio 1.25 --pbratio 1.17 --colorprim bt709 --transfer bt709 --colormatrix bt709 --sar 1:1 --stats "N:\BD-DISC\GENESIS_II_PLANET_EARTH\BDMV\STREAM\00001.log" --output "N:\BD-DISC\GENESIS_II_PLANET_EARTH\BDMV\STREAM\00001.mkv" "H:\TEMP\5814.avs"
avs [info]: 720x540p 1:1 @ 2500000/104271 fps (cfr)
x264 [info]: using SAR=1/1
x264 [info]: using cpu capabilities: MMX2 SSE2Fast LZCNT
x264 [info]: profile High, level 4.1
clpi_parse.c:733: Failed to open N:\BD-DISC\GENESIS_II_PLANET_EARTH\BDMV\CLIPINF\00001.clpi
x264 [info]: frame I:963 Avg QP:17.17 size: 78945
x264 [info]: frame P:22779 Avg QP:19.44 size: 25545
x264 [info]: frame B:82458 Avg QP:21.94 size: 6753
x264 [info]: consecutive B-frames: 2.8% 2.7% 6.6% 15.0% 15.5% 45.5% 6.9% 2.5% 2.6%
x264 [info]: mb I I16..4: 5.2% 73.6% 21.2%
x264 [info]: mb P I16..4: 0.6% 0.0% 4.6% P16..4: 30.9% 38.7% 18.4% 3.9% 0.6% skip: 2.2%
x264 [info]: mb B I16..4: 0.0% 0.0% 0.3% B16..8: 36.5% 19.8% 3.5% direct: 5.7% skip:34.3% L0:43.0% L1:41.9% BI:15.1%
x264 [info]: 8x8 transform intra:29.6% inter:59.3%
x264 [info]: direct mvs spatial:97.8% temporal:2.2%
x264 [info]: coded y,uvDC,uvAC intra: 95.0% 93.0% 77.3% inter: 34.1% 23.7% 3.9%
x264 [info]: i16 v,h,dc,p: 20% 12% 11% 57%
x264 [info]: i8 v,h,dc,ddl,ddr,vr,hd,vl,hu: 12% 11% 9% 9% 12% 11% 11% 12% 14%
x264 [info]: i4 v,h,dc,ddl,ddr,vr,hd,vl,hu: 10% 6% 4% 9% 15% 15% 14% 13% 15%
x264 [info]: i8c dc,h,v,p: 46% 18% 18% 18%
x264 [info]: Weighted P-Frames: Y:5.1% UV:1.9%
x264 [info]: ref P L0: 41.9% 14.3% 19.9% 6.1% 6.7% 3.9% 4.6% 2.3% 0.3% 0.0%
x264 [info]: ref B L0: 70.3% 13.9% 6.9% 3.9% 2.8% 1.6% 0.6%
x264 [info]: ref B L1: 92.0% 8.0%
x264 [info]: kb/s:2193.96
x264 [total]: encoded 106200 frames, 7.36 fps, 2193.97 kb/s
TIME
------------------------------
Общее время кодирования: 4 hour 48 min 45 sec
Файл получился на: 1159.24 mb

MediaInfo BDRip

Общее
Уникальный идентификатор : 220988835999890821050863733867190456961 (0xA640E6D35EAA437083DF833FB9049281)
Полное имя : N:\BD-DISC\GENESIS_II_PLANET_EARTH\BDMV\STREAM\Planet Earth 1974.x264.BDRip.Rus.kosmoaelita.mkv
Формат : Matroska
Версия формата : Version 4
Размер файла : 1,36 Гбайт
Продолжительность : 1 ч. 13 м.
Общий поток : 2646 Кбит/сек
Название фильма : Planet Earth / Планета Земля / 1974 / rip from BD50 by kosmoaelita (2020-10-05), crf=17.90
Дата кодирования : UTC 2020-10-05 05:39:32
Программа кодирования : mkvmerge v6.6.0 ('The Edge Of The In Between') built on Dec 1 2013 17:55:00
Библиотека кодирования : libebml v1.3.0 + libmatroska v1.4.1
Attachments : 00001.mkv.encoding.log / poster pl .jpg
Видео
Идентификатор : 1
Формат : AVC
Формат/Информация : Advanced Video Codec
Профиль формата : High@L4.1
Настройки формата : CABAC / 8 Ref Frames
Параметр CABAC формата : Да
Параметр RefFrames формата : 8 кадров
Идентификатор кодека : V_MPEG4/ISO/AVC
Продолжительность : 1 ч. 13 м.
Битрейт : 2194 Кбит/сек
Ширина : 720 пикселей
Высота : 540 пикселей
Соотношение сторон : 4:3
Режим частоты кадров : Постоянный
Частота кадров : 23,976 кадра/сек
Цветовое пространство : YUV
Субдискретизация насыщенности : 4:2:0
Битовая глубина : 8 бит
Тип развёртки : Прогрессивная
Бит/(Пиксели*Кадры) : 0.235
Размер потока : 1,11 Гбайт (81%)
Заголовок : http://kosmoaelita.com/viewtopic.php?t=147
Библиотека кодирования : x264 core 146 r2538 121396c
Настройки программы : cabac=1 / ref=8 / deblock=1:-2:-2 / analyse=0x3:0x131 / me=umh / subme=11 / psy=1 / psy_rd=0.99:0.14 / mixed_ref=1 / me_range=24 / chroma_me=1 / trellis=2 / 8x8dct=1 / cqm=0 / deadzone=21,11 / fast_pskip=1 / chroma_qp_offset=-3 / threads=6 / lookahead_threads=1 / sliced_threads=0 / nr=0 / decimate=1 / interlaced=0 / bluray_compat=0 / constrained_intra=0 / bframes=8 / b_pyramid=2 / b_adapt=2 / b_bias=0 / direct=3 / weightb=1 / open_gop=0 / weightp=2 / keyint=210 / keyint_min=21 / scenecut=40 / intra_refresh=0 / rc_lookahead=80 / rc=2pass / mbtree=1 / bitrate=2194 / ratetol=1.0 / qcomp=0.65 / qpmin=0 / qpmax=69 / qpstep=4 / cplxblur=20.0 / qblur=0.5 / ip_ratio=1.25 / aq=1:0.90
Язык : English
Default : Да
Forced : Нет
Цветовой диапазон : Limited
Основные цвета : BT.709
Характеристики трансфера : BT.709
Коэффициенты матрицы : BT.709
Аудио #1
Идентификатор : 2
Формат : AC-3
Формат/Информация : Audio Coding 3
Коммерческое название : Dolby Digital
Идентификатор кодека : A_AC3
Продолжительность : 1 ч. 13 м.
Вид битрейта : Постоянный
Битрейт : 192 Кбит/сек
Каналы : 2 канала
ChannelLayout : L R
Частота : 48,0 КГц
Частота кадров : 31,250 кадров/сек (1536 SPF)
Метод сжатия : С потерями
Размер потока : 101 Мбайт (7%)
Заголовок : Русский ЛО (kosmoaelita)
Язык : Russian
ServiceKind/String : Complete Main
Default : Да
Forced : Нет
Аудио #2
Идентификатор : 3
Формат : AC-3
Формат/Информация : Audio Coding 3
Коммерческое название : Dolby Digital
Идентификатор кодека : A_AC3
Продолжительность : 1 ч. 13 м.
Вид битрейта : Постоянный
Битрейт : 256 Кбит/сек
Каналы : 2 канала
ChannelLayout : L R
Частота : 48,0 КГц
Частота кадров : 31,250 кадров/сек (1536 SPF)
Метод сжатия : С потерями
Размер потока : 135 Мбайт (10%)
Язык : English
ServiceKind/String : Complete Main
Default : Нет
Forced : Нет
Текст #1
Идентификатор : 4
Формат : UTF-8
Идентификатор кодека : S_TEXT/UTF8
Идентификатор кодека/Информация : UTF-8 Plain Text
Заголовок : Русский (Vargnatt) srt
Язык : Russian
Default : Да
Forced : Нет
Текст #2
Идентификатор : 5
Формат : VobSub
Режим смешивания : zlib
Идентификатор кодека : S_VOBSUB
Идентификатор кодека/Информация : Picture based subtitle format used on DVDs
Заголовок : Русский (Vargnatt) VobSub
Язык : Russian
Default : Нет
Forced : Нет
Текст #3
Идентификатор : 6
Формат : UTF-8
Идентификатор кодека : S_TEXT/UTF8
Идентификатор кодека/Информация : UTF-8 Plain Text
Язык : English
Default : Нет
Forced : Нет
Меню
00:00:00.000 : en:00:00:00.000
00:02:06.376 : en:00:02:06.376
00:14:18.733 : en:00:14:18.733
00:27:00.911 : en:00:27:00.911
00:37:36.421 : en:00:37:36.421
00:47:40.191 : en:00:47:40.191
01:13:02.712 : en:01:13:02.712
01:13:48.424 : en:01:13:48.424

MediaInfo BDRip-1080p

Общее
Уникальный идентификатор : 176159545162051937306909088284159483801 (0x848718242860DD45B18C86BE66F39F99)
Полное имя : N:\BD-DISC\GENESIS_II_PLANET_EARTH\BDMV\STREAM\Planet Earth 1974.x264.BDRip.1080p.Rus.kosmoaelita.mkv
Формат : Matroska
Версия формата : Version 4
Размер файла : 5,08 Гбайт
Продолжительность : 1 ч. 13 м.
Общий поток : 9853 Кбит/сек
Название фильма : Planet Earth / Планета Земля / 1974 / rip from BD50 by kosmoaelita (2020-10-06), crf=18.77
Дата кодирования : UTC 2020-10-07 00:59:03
Программа кодирования : mkvmerge v6.6.0 ('The Edge Of The In Between') built on Dec 1 2013 17:55:00
Библиотека кодирования : libebml v1.3.0 + libmatroska v1.4.1
Attachments : ПЛ ЗЕМЛЯ 1080.mkv.encoding.log / poster pl .jpg
Видео
Идентификатор : 1
Формат : AVC
Формат/Информация : Advanced Video Codec
Профиль формата : High@L4.1
Настройки формата : CABAC / 5 Ref Frames
Параметр CABAC формата : Да
Параметр RefFrames формата : 5 кадров
Идентификатор кодека : V_MPEG4/ISO/AVC
Продолжительность : 1 ч. 13 м.
Битрейт : 9000 Кбит/сек
Ширина : 1436 пикселей
Высота : 1080 пикселей
Соотношение сторон : 4:3
Режим частоты кадров : Постоянный
Частота кадров : 23,976 кадра/сек
Цветовое пространство : YUV
Субдискретизация насыщенности : 4:2:0
Битовая глубина : 8 бит
Тип развёртки : Прогрессивная
Бит/(Пиксели*Кадры) : 0.242
Размер потока : 4,55 Гбайт (90%)
Заголовок : http://kosmoaelita.com/viewtopic.php?t=147
Библиотека кодирования : x264 core 146 r2538 121396c
Настройки программы : cabac=1 / ref=5 / deblock=1:-2:-2 / analyse=0x3:0x131 / me=umh / subme=10 / psy=1 / psy_rd=0.99:0.14 / mixed_ref=1 / me_range=32 / chroma_me=1 / trellis=2 / 8x8dct=1 / cqm=0 / deadzone=21,11 / fast_pskip=1 / chroma_qp_offset=-3 / threads=6 / lookahead_threads=1 / sliced_threads=0 / nr=0 / decimate=1 / interlaced=0 / bluray_compat=0 / constrained_intra=0 / bframes=8 / b_pyramid=2 / b_adapt=2 / b_bias=0 / direct=3 / weightb=1 / open_gop=0 / weightp=2 / keyint=210 / keyint_min=21 / scenecut=40 / intra_refresh=0 / rc_lookahead=80 / rc=2pass / mbtree=1 / bitrate=9000 / ratetol=1.0 / qcomp=0.65 / qpmin=0 / qpmax=69 / qpstep=4 / cplxblur=20.0 / qblur=0.5 / ip_ratio=1.25 / aq=1:0.90
Язык : English
Default : Да
Forced : Нет
Цветовой диапазон : Limited
Основные цвета : BT.709
Характеристики трансфера : BT.709
Коэффициенты матрицы : BT.709
Аудио #1
Идентификатор : 2
Формат : AC-3
Формат/Информация : Audio Coding 3
Коммерческое название : Dolby Digital
Идентификатор кодека : A_AC3
Продолжительность : 1 ч. 13 м.
Вид битрейта : Постоянный
Битрейт : 192 Кбит/сек
Каналы : 2 канала
ChannelLayout : L R
Частота : 48,0 КГц
Частота кадров : 31,250 кадров/сек (1536 SPF)
Метод сжатия : С потерями
Размер потока : 101 Мбайт (2%)
Заголовок : Русский ЛО (kosmoaelita)
Язык : Russian
ServiceKind/String : Complete Main
Default : Да
Forced : Нет
Аудио #2
Идентификатор : 3
Формат : AC-3
Формат/Информация : Audio Coding 3
Коммерческое название : Dolby Digital
Идентификатор кодека : A_AC3
Продолжительность : 1 ч. 13 м.
Вид битрейта : Постоянный
Битрейт : 640 Кбит/сек
Каналы : 2 канала
ChannelLayout : L R
Частота : 48,0 КГц
Частота кадров : 31,250 кадров/сек (1536 SPF)
Метод сжатия : С потерями
Размер потока : 338 Мбайт (6%)
Язык : English
ServiceKind/String : Complete Main
Default : Нет
Forced : Нет
Текст #1
Идентификатор : 4
Формат : UTF-8
Идентификатор кодека : S_TEXT/UTF8
Идентификатор кодека/Информация : UTF-8 Plain Text
Заголовок : Русский (Vargnatt) srt
Язык : Russian
Default : Да
Forced : Нет
Текст #2
Идентификатор : 5
Формат : VobSub
Режим смешивания : zlib
Идентификатор кодека : S_VOBSUB
Идентификатор кодека/Информация : Picture based subtitle format used on DVDs
Заголовок : Русский (Vargnatt) VobSub
Язык : Russian
Default : Нет
Forced : Нет
Текст #3
Идентификатор : 6
Формат : UTF-8
Идентификатор кодека : S_TEXT/UTF8
Идентификатор кодека/Информация : UTF-8 Plain Text
Язык : English
Default : Нет
Forced : Нет
Текст #4
Идентификатор : 7
Формат : PGS
Режим смешивания : zlib
Идентификатор кодека : S_HDMV/PGS
Идентификатор кодека/Информация : Picture based subtitle format used on BDs/HD-DVDs
Заголовок : SDH
Язык : English
Default : Нет
Forced : Нет
Меню
00:00:00.000 : en:00:00:00.000
00:02:06.376 : en:00:02:06.376
00:14:18.733 : en:00:14:18.733
00:27:00.911 : en:00:27:00.911
00:37:36.421 : en:00:37:36.421
00:47:40.191 : en:00:47:40.191
01:13:02.712 : en:01:13:02.712
01:13:48.424 : en:01:13:48.424

Скриншоты














Скринлист

Файл дополнительно залит на ОБЛАКО


Last edited by admin on 2015-07-21 10:47; edited 3 times in total
[Profile] [PM]

Guest

Gender: Unknown

Post 26-Aug-2014 04:30 (after 1 year 11 months)

[Quote]

http://en.wikipedia.org/wiki/The_Bionic_Woman#DVD_releases
http://www.wbshop.com/product/code/1000430342.do?AI...1628&ref=CJP
выходит у Варнер архив
 

kosmoaelita

Gender: Male

Longevity: 8 years 1 month

Posts: 1682

Post 05-Oct-2020 08:44 (after 6 years 1 month)

[Quote]

Замена на BDRip
[Profile] [PM]
Display posts:    
Reply to topic

Current time is: 22-Oct 20:55

All times are UTC + 3



You cannot post new topics in this forum
You cannot reply to topics in this forum
You cannot edit your posts in this forum
You cannot delete your posts in this forum
You cannot vote in polls in this forum
You cannot attach files in this forum
You cannot download files in this forum