Планета Земля / Planet Earth (Марк Дэниелс / Marc Daniels) [1974, США, Фантастика, DVDRip (AVC)] VO Александр Середа + Sub Rus + Original Eng

Reply to topic
 
Author Message

admin ®

Gender: Male

Longevity: 7 years 2 months

Posts: 4723

Post 15-Sep-2012 12:11

[Quote]

Планета Земля / Planet Earth
Страна: США, Warner Bros. Television
Жанр: Фантастика
Год выпуска: 1974
Продолжительность: 01:13:48
Перевод: Одноголосый закадровый Александр Середа
Cубтитры: Русские Vargnatt
Режиссер: Марк Дэниелс / Marc Daniels
В ролях: Джон Сэксон, Джанет Марголин, Тед Кэссиди, Кристофер Кэри, Диана Малдур, Сэлли Кемп, Johana De Winter, Клер Бреннен, Корина Камачо, Маджел Бэррет
Описание: Второй фильм трилогии. Продолжение очень добротной постапокалиптической фантастики-приключений. Ученый Дилан Хант в 1979 году ставит эксперимент по анабиозу. Он должен проснуться через несколько дней. Но в результате землетрясения он оказывается погребенным и его откапывают члены пацифистской организации "ПАКС" только через 154 года. Его встречает очень странный и пестрый постапокаллиптический мир - женщины, использующие мужчин, как рабов, мутировавшие солдаты, суперскоростной подземный транспорт, опоясывающий всю планету...По стилю съемки и манере рассказа напоминает "Западный мир"

Трилогия:
1. Генезис II / Genesis II / 1973
2. Планета Земля / Planet Earth / 1974
3. Странный новый мир / Strange New World / 1975
Качество: DVDRip (AVC)
Формат: MKV
Видео: x264, 1912 Кбит/с, 720х528 crf=22
Аудио 1: Русский (AC3, 2 ch, 192 Кбит/с)
Аудио 2: Английский (AC3, 2 ch, 192 Кбит/с)
Субтитры : Русские (Vargnatt)


Релиз

Рип с ДВД5, монтаж и озвучка - sasha20072007, качество рипа - crf=22
Озвучка: - Александр Середа (sasha20072007)
Русские субтитры: Vargnatt
Больше о фильме
Сравнение с исходником DVD5
Для Украины: рип и ориг. DVD5 дополнительно залит в файлохранилище
Для удаления и добавления дорожек в mkv используйте бесплатную mkvmerge GUI 5.80

MediaInfo

Общее
Уникальный идентификатор : 200929813480282345888451305746564131760 (0x9729ACA8C4618C61B95DAFB2B78C2BB0)
Полное имя : F:\Planeta.Zemlja.1974.x264.DVDRip.sasha20072007.mkv
Формат : Matroska
Версия формата : Version 2
Размер файла : 1,21 Гбайт
Продолжительность : 1 ч. 13 м.
Общий поток : 2342 Кбит/сек
Название фильма : Planet Earth / 1974 / Планета Земля / rip by sasha20072007
Дата кодирования : UTC 2012-04-15 17:43:31
Программа кодирования : mkvmerge v5.5.0 ('Healer') built on Apr 10 2012 09:33:48
Библиотека кодирования : libebml v1.2.3 + libmatroska v1.3.0
Attachment : Yes
Видео
Идентификатор : 1
Формат : AVC
Формат/Информация : Advanced Video Codec
Профиль формата : High@L4.1
Параметр CABAC формата : Да
Параметр ReFrames формата : 10 кадров
Идентификатор кодека : V_MPEG4/ISO/AVC
Продолжительность : 1 ч. 13 м.
Битрейт : 1912 Кбит/сек
Ширина : 704 пикселя
Высота : 528 пикселей
Соотношение сторон : 4:3
Частота кадров : 23,976 кадра/сек
Цветовое пространство : YUV
Субдискретизация насыщенности : 4:2:0
Битовая глубина : 8 бит
Тип развёртки : Прогрессивная
Бит/(Пиксели*Кадры) : 0.215
Размер потока : 1009 Мбайт (82%)
Библиотека кодирования : x264 core 120 r2164 da19765
Настройки программы : cabac=1 / ref=10 / deblock=1:-2:-2 / analyse=0x3:0x133 / me=umh / subme=11 / psy=1 / psy_rd=1.00:0.25 / mixed_ref=1 / me_range=24 / chroma_me=1 / trellis=2 / 8x8dct=1 / cqm=0 / deadzone=6,6 / fast_pskip=1 / chroma_qp_offset=-4 / threads=12 / sliced_threads=0 / nr=0 / decimate=0 / interlaced=0 / bluray_compat=0 / constrained_intra=0 / bframes=10 / b_pyramid=2 / b_adapt=2 / b_bias=0 / direct=3 / weightb=1 / open_gop=0 / weightp=2 / keyint=220 / keyint_min=22 / scenecut=40 / intra_refresh=0 / rc_lookahead=60 / rc=crf / mbtree=1 / crf=23.0 / qcomp=0.80 / qpmin=0 / qpmax=69 / qpstep=4 / vbv_maxrate=17500 / vbv_bufsize=14000 / crf_max=0.0 / nal_hrd=none / ip_ratio=1.17 / aq=1:0.60
Default : Да
Forced : Нет
Аудио #1
Идентификатор : 2
Формат : AC-3
Формат/Информация : Audio Coding 3
Расширение режима : CM (complete main)
Параметр Endianness формата : Big
Идентификатор кодека : A_AC3
Продолжительность : 1 ч. 13 м.
Вид битрейта : Постоянный
Битрейт : 192 Кбит/сек
Каналы : 2 канала
Расположение каналов : Front: L R
Частота : 48,0 КГц
Битовая глубина : 16 бит
Метод сжатия : С потерями
Размер потока : 101 Мбайт (8%)
Заголовок : Русский (sasha20072007)
Язык : Russian
Default : Да
Forced : Нет
Аудио #2
Идентификатор : 3
Формат : AC-3
Формат/Информация : Audio Coding 3
Расширение режима : CM (complete main)
Параметр Endianness формата : Big
Идентификатор кодека : A_AC3
Продолжительность : 1 ч. 13 м.
Вид битрейта : Постоянный
Битрейт : 192 Кбит/сек
Каналы : 2 канала
Расположение каналов : Front: L R
Частота : 48,0 КГц
Битовая глубина : 16 бит
Метод сжатия : С потерями
Размер потока : 101 Мбайт (8%)
Язык : English
Default : Нет
Forced : Нет
Текст #1
Идентификатор : 4
Формат : VobSub
Идентификатор кодека : S_VOBSUB
Идентификатор кодека/Информация : The same subtitle format used on DVDs
Заголовок : Русский (Vargnatt) VobSub
Язык : Russian
Default : Да
Forced : Нет
Текст #2
Идентификатор : 5
Формат : UTF-8
Идентификатор кодека : S_TEXT/UTF8
Идентификатор кодека/Информация : UTF-8 Plain Text
Заголовок : Русский (Vargnatt) srt
Язык : Russian
Default : Нет
Forced : Нет
Меню
00:00:00.000 : :Chapter 01
00:10:00.500 : :Chapter 02
00:20:00.000 : :Chapter 03
00:30:00.000 : :Chapter 04
00:40:00.500 : :Chapter 05
00:50:00.000 : :Chapter 06
01:00:00.500 : :Chapter 07
01:10:00.000 : :Chapter 08

Скриншоты


cd Рип дополнительно залит на mail.ru cd2


Last edited by admin on 2015-07-21 10:47; edited 3 times in total
[Profile] [PM]

Guest

Gender: Unknown

Post 26-Aug-2014 04:30 (after 1 year 11 months)

[Quote]

http://en.wikipedia.org/wiki/The_Bionic_Woman#DVD_releases
http://www.wbshop.com/product/code/1000430342.do?AI...1628&ref=CJP
выходит у Варнер архив
 
Quick Reply

Name:

            
Heads necessary to send messages to enable JavaScript
Display posts:    
Reply to topic

Current time is: 14-Nov 11:48

All times are UTC + 3



You cannot post new topics in this forum
You can reply to topics in this forum
You cannot edit your posts in this forum
You cannot delete your posts in this forum
You cannot vote in polls in this forum
You cannot attach files in this forum
You cannot download files in this forum