День, когда Земля воспылала огнём / The Day the Earth Caught Fire (Вэл Гест / Val Gues) [1961, Великобритания, Фантастика, Драма, Фильм-катастрофа, BDRip-1080p] АО (Трамвай-фильм) + Original Eng

Reply to topic
 
Author Message

admin ®

Gender: Male

Longevity: 8 years 1 month

Posts: 4794

Post 21-Nov-2014 04:18

[Quote]

День, когда Земля воспылала огнём / The Day the Earth Caught Fire
Страна: Великобритания
Жанр: Фантастика, Драма, Фильм-катастрофа
Год выпуска: 1961
Продолжительность: 01:38:51
Перевод: одноголосый закадровый Трамвай-фильм
Оригинальная аудиодорожка: английский
Режиссер: Вэл Гест / Val Gues
В ролях: Джанет Манро /Janet Munro ... Джинни Крэйг
Лео МакКёрн /Leo McKern ... Билл Магуайр
Эдвард Джадд /Edward Judd ... Питер Стэннинг
Майкл Гудлифф /Michael Goodliffe ... Джеко Джексон (ночной редактор)
Бернард Брэйден /Bernard Braden ... Дэвис (редактор новостей)
Реджиналд Бекуит /Reginald Beckwith ... Гарри
Джин Андерсон /Gene Anderson ... Мэй
Описание: "Одновременные экспериментальные атомные взрывы, произведенные в США и СССР приводят к тому, что Земля сходит со своей орбиты и неминуемо приближается к Солнцу. Власти обеих государств хранят молчание, но ретивый журналист газеты «The London Daily Express» Пит Стеннинг с помощью знакомой телефонистки Дженни Крэйг доискивается до правды. Оказывается, в течение следующих четырех месяцев все население планеты неминуемо должно «поджариться». Все нации и народы Земли объединяют свои усилия для спасения планеты…
Качество: BDRip-1080p
Формат: MKV
Видео: x264, 8791 Кбит/с, 1920x800, 24 к/с, subme=7
Аудио 1: Русский АО (Трамвай-фильм) (AC3, 2 ch, 192 Кбит/с)
Аудио 2: Английский (AC3, 2 ch, 384 Кбит/с)
Аудио 3: Английский (Comment) (AC3, 2 ch, 384 Кбит/с)
Cубтитры: Английские
Работа над релизом:
Видеоряд найден в сети.
Перевод и озвучка: студия "Трамвай фильм"
Работа по синхрону дорожек - sasha20072007 (kosmoaelita)
DVDRip vs. BDRip



Релиз

Сравнение с раздачей в сети
Для удаления и добавления дорожек в mkv используйте бесплатную mkvmerge GUI 5.80

Рецензия

Апокалипсис вчера
Атом, как мирный, так и применяемый в военных целях, таит серьезную опасность для рода человеческого. В апреле прошлого года мы имели возможность наглядно убедиться в этом ещё раз на примере аварии на Фукусиме. Но подобные события происходят далеко не в первый раз, в истории был и Чернобыль, и бомбардировки японских городов Хиросима и Нагасаки. Более того, о ядерной угрозе снималось немало кинокартин, к тому же еще на заре атомных эры. Один из таких фильмов, «День, когда земля воспылала огнём», привлек мое внимание.
Стареющая классика
Фильм, о котором я хочу поговорить, был снят аж в 1961 году. Таким образом его можно считать одной из первых кино-катастроф. Сюжет довольно прост — синхронно проведенные американской и советской стороной ядерные испытания приводят к тому, что наша планета сходит с орбиты и медленно (в течение 4 месяцев), но верно движется к звезде по имени Солнце. Делая скидку на возраст картины, можно сказать, что идея фильма довольно свежа и оригинальна. До британцев такие масштабные катастрофы не снимал никто и я не исключаю, то «День, когда Земля…» мог стать прорывом в своем жанре.
Алло, редакция?
В центре фильма группа журналистов, вернее редакция одной из лондонских газет, получающая информацию об испытаниях ядерного оружия. Поначалу газетчики довольны до жути и хотят выжать как можно больше из этой новости. Однако, по мере поступления новых сведений от ученых, их энтузиазм сменяется унынием и даже страхом за неясное будущее Земли. Некоторые из них пытаются отшучиваться: «Все сядем в звездолеты и улетим куда-нибудь на Луну», хотя очевидно, что это просто защитная реакция на происходящее. Так что безысходность постепенно становится лейтмотивом этого фильма.
Хаос, анархия, беспредел
Атмосфера приближающегося конца света передана неплохо. Вода становится самым ценным продуктом — на черном рынке цены на нее взлетают до 4 фунтов за 4 галлона, по улицам снуют бесноватые юнцы, готовые в любой момент ворваться в чужие дома, изнасиловать кого-нибудь или даже убить. Удались и сцены, в которых люди вытирают бегущий по лицу пот, с каждой минутой на Земле становится жарче и переносить такие условия не всем удается. В благополучной Британии люди выстраиваются в очереди, что получить необходимые для жизни продукты или просто принять душ. Так что поверить в происходящее довольно просто, не нужно даже напрягать воображение.
Черно-белые дни
Картина снята на черно-белую пленку, по этому поводу я ничего плохого сказать не могу. В то время мало какие фильмы выходили в цвете. Более того, это придает определенный шарм данному проекту. Но вот визуальные эффекты получились не самыми зрелищными. Автобусы заваливаются набок как картонные коробки от порыва ветра, нарисованные молнии вспарывают брезентовые небеса, подобный дыму туман обволакивает Темзу, люди слушают речь премьер-министра на фоне явно нарисованного Лондона, потрескавшаяся земля больше напоминает треснувшее папье-маше. Так что с точки зрения современного киномана, привыкшего к спецэффектам уровня «Аватара», «Начала» или даже «Матрицы», здесь просто не на что смотреть. Фильм производит бледное впечатление даже со скидкой на год выпуска.
В долгом ожидании конца
Кино получилось чересчур затянутым. Избыточными выглядят длинные диалоги и сцены, длящиеся по десятку минут. Динамики явно не хватило. Более того, кроме обреченности и уныния в этом фильме не получилось передать ничего. Финальные (как и начальные) кадры сняты с применением сепии, видимо, чтобы показать, как жарко героям на погибающей Земле. Но достойного впечатления они не производят, ведь как я уже упомянул — спецэффектов в этом фильме нет, так что любители красивой картинки в кино могут смело проходить мимо этой работы режиссера Вэла Геста. Остальные могут ознакомиться с фильмом, но не стоит ждать от него чего-то сверхъестественного, так как время таких картин давно прошло.
Финал фильма открытый, я ничего не скажу по поводу того, на какой ноте закончилось повествование об апокалипсисе, упомяну лишь, что в редакции газеты «Daily Times» лежат два экземпляра свежего выпуска с диаметрально противоположными заголовками. За эту находку и еще за некоторые плюсы я ставлю картине
6 из 10

MediaInfo

Общее
Уникальный идентификатор : 232479168759993212729352940623511626124 (0xAEE5DBF83565E187B034CD55EC7B218C)
Полное имя : N:\The Day the Earth Caught Fire 1961.x264.BDRip.1080p.Rus.kosmoaelita.mkv
Формат : Matroska
Версия формата : Version 4 / Version 2
Размер файла : 6,65 Гбайт
Продолжительность : 1 ч. 39 м.
Общий поток : 9562 Кбит/сек
Название фильма : The Day The Earth Caught Fire 1961.x264.BDRip.1080p / kosmoaelita
Дата кодирования : UTC 2014-11-21 01:03:50
Программа кодирования : mkvmerge v6.6.0 ('The Edge Of The In Between') built on Dec 1 2013 17:55:00
Библиотека кодирования : libebml v1.3.0 + libmatroska v1.4.1
DURATION : 01:37:53.332000000
NUMBER_OF_FRAMES : 1842
NUMBER_OF_BYTES : 80618
_STATISTICS_WRITING_APP : mkvmerge v7.0.0 ('Where We Going') 32bit built on Jun 9 2014 15:08:34
_STATISTICS_WRITING_DATE_UTC : 2014-11-18 23:41:36
_STATISTICS_TAGS : BPS DURATION NUMBER_OF_FRAMES NUMBER_OF_BYTES
Видео
Идентификатор : 1
Формат : AVC
Формат/Информация : Advanced Video Codec
Профиль формата : High@L4.1
Параметр CABAC формата : Да
Параметр ReFrames формата : 5 кадров
Идентификатор кодека : V_MPEG4/ISO/AVC
Продолжительность : 1 ч. 39 м.
Битрейт : 8791 Кбит/сек
Ширина : 1920 пикселей
Высота : 800 пикселей
Соотношение сторон : 2,40:1
Режим частоты кадров : Постоянный
Частота кадров : 24,000 кадра/сек
Цветовое пространство : YUV
Субдискретизация насыщенности : 4:2:0
Битовая глубина : 8 бит
Тип развёртки : Прогрессивная
Бит/(Пиксели*Кадры) : 0.238
Размер потока : 5,98 Гбайт (90%)
Заголовок : kosmoaelita
Библиотека кодирования : x264 core 142 r2479 dd79a61
Настройки программы : cabac=1 / ref=5 / deblock=1:0:0 / analyse=0x3:0x133 / me=umh / subme=7 / psy=1 / psy_rd=1.00:0.00 / mixed_ref=1 / me_range=16 / chroma_me=1 / trellis=1 / 8x8dct=1 / cqm=0 / deadzone=21,11 / fast_pskip=0 / chroma_qp_offset=-2 / threads=12 / lookahead_threads=2 / sliced_threads=0 / nr=0 / decimate=1 / interlaced=0 / bluray_compat=0 / constrained_intra=0 / bframes=3 / b_pyramid=2 / b_adapt=2 / b_bias=0 / direct=3 / weightb=1 / open_gop=0 / weightp=2 / keyint=250 / keyint_min=24 / scenecut=40 / intra_refresh=0 / rc_lookahead=50 / rc=2pass / mbtree=1 / bitrate=8791 / ratetol=1.0 / qcomp=0.60 / qpmin=0 / qpmax=69 / qpstep=4 / cplxblur=20.0 / qblur=0.5 / ip_ratio=1.40 / aq=1:1.00
Язык : English
Default : Да
Forced : Нет
DURATION : 01:39:30.042000000
NUMBER_OF_FRAMES : 143281
NUMBER_OF_BYTES : 6560750100
_STATISTICS_WRITING_APP : mkvmerge v7.0.0 ('Where We Going') 32bit built on Jun 9 2014 15:08:34
_STATISTICS_WRITING_DATE_UTC : 2014-11-18 23:41:36
_STATISTICS_TAGS : BPS DURATION NUMBER_OF_FRAMES NUMBER_OF_BYTES
Аудио #1
Идентификатор : 2
Формат : AC-3
Формат/Информация : Audio Coding 3
Расширение режима : CM (complete main)
Параметр Endianness формата : Big
Идентификатор кодека : A_AC3
Продолжительность : 1 ч. 39 м.
Вид битрейта : Постоянный
Битрейт : 192 Кбит/сек
Каналы : 2 канала
Расположение каналов : Front: L R
Частота : 48,0 КГц
Битовая глубина : 16 бит
Метод сжатия : С потерями
Размер потока : 137 Мбайт (2%)
Заголовок : Русский АО (Трамвай-фильм)
Язык : Russian
Default : Да
Forced : Нет
Аудио #2
Идентификатор : 3
Формат : AC-3
Формат/Информация : Audio Coding 3
Расширение режима : CM (complete main)
Параметр Endianness формата : Big
Идентификатор кодека : A_AC3
Продолжительность : 1 ч. 39 м.
Вид битрейта : Постоянный
Битрейт : 384 Кбит/сек
Каналы : 1 канал
Расположение каналов : Front: C
Частота : 48,0 КГц
Битовая глубина : 16 бит
Метод сжатия : С потерями
Размер потока : 273 Мбайт (4%)
Язык : English
Default : Нет
Forced : Нет
Аудио #3
Идентификатор : 4
Формат : AC-3
Формат/Информация : Audio Coding 3
Расширение режима : CM (complete main)
Параметр Endianness формата : Big
Идентификатор кодека : A_AC3
Продолжительность : 1 ч. 39 м.
Вид битрейта : Постоянный
Битрейт : 192 Кбит/сек
Каналы : 2 канала
Расположение каналов : Front: L R
Частота : 48,0 КГц
Битовая глубина : 16 бит
Метод сжатия : С потерями
Размер потока : 137 Мбайт (2%)
Заголовок : Comment
Язык : English
Default : Нет
Forced : Нет
Текст
Идентификатор : 5
Формат : UTF-8
Идентификатор кодека : S_TEXT/UTF8
Идентификатор кодека/Информация : UTF-8 Plain Text
Язык : English
Default : Да
Forced : Нет
Меню
00:00:00.000 : en:00:00:00.000
00:09:02.000 : en:00:09:02.000
00:15:30.000 : en:00:15:30.000
00:22:47.000 : en:00:22:47.000
00:30:18.167 : en:00:30:18.167
00:36:23.917 : en:00:36:23.917
00:44:38.667 : en:00:44:38.667
00:53:40.625 : en:00:53:40.625
01:06:48.333 : en:01:06:48.333
01:12:18.000 : en:01:12:18.000
01:22:16.083 : en:01:22:16.083
01:34:09.000 : en:01:34:09.000

Скриншоты












Скринлист

cd Рип дополнительно залит на mail.ru cd2


Last edited by admin on 2014-11-21 05:01; edited 2 times in total
[Profile] [PM]

admin ®

Gender: Male

Longevity: 8 years 1 month

Posts: 4794

Post 21-Nov-2014 04:28 (after 9 minutes)

[Quote]

DVDRip vs. BDRip
[Profile] [PM]
Display posts:    
Reply to topic

Current time is: 20-Oct 03:30

All times are UTC + 3



You cannot post new topics in this forum
You cannot reply to topics in this forum
You cannot edit your posts in this forum
You cannot delete your posts in this forum
You cannot vote in polls in this forum
You cannot attach files in this forum
You cannot download files in this forum