Эксперимент Куотермасса / The Quatermass Xperiment (Вэл Гест / Val Guest) [1955 г., ужасы, фантастика, BDRip-1080p] ПМ (Лексикон), ЛО (slavnus), СТ (Vargnatt)

Reply to topic
 
Author Message

admin ®

Gender: Male

Longevity: 7 years 9 months

Posts: 4799

Post 20-Nov-2014 04:13

[Quote]

Эксперимент Куотермасса / The Quatermass Xperiment
Год выпуска: 1955
Страна: Великобритания
Жанр: ужасы, фантастика
Продолжительность: 01:18:39
Перевод: ПМ (Лексикон), ЛО (slavnus)
Режиссер: Вэл Гест / Val Guest
В ролях: Брайан Донлеви, Джек Уорнер, Марджа Дин, Тора Хёрд, Гордон Джексон, Дэвид Кинг-Вуд, Харольд Лэнг, Лайонел Джеффрис, Сэм Кидд, Ричард Уордсворт
Описание: По возвращении из космоса ракета, запущенная группой учёных во главе с профессором Бернардом Куотермассом, падает в английской глубинке. Из трёх членов экипажа ракеты двое исчезают, а третий превращается в отвратительного мутанта, который начинает уничтожать людей и животных, подпитывая их плотью дальнейшие чудовищные трансформации своего организма. Куотермасс решает, что здесь не обошлось без происков враждебных инопланетных форм жизни
Качество: BDRip-1080p
Формат: MKV
Видео: x264, 9293 кбит/с, 1440x1080, 25 к/с
Аудио 1: Русский ПМ Лексикон (AC3, 2 ch, 192 Кбит/с)
Аудио 2: Английский (AC3, 2 ch, 640 Кбит/с)
Аудио 3: Русский slavnus (AC3, 2 ch, 192 Кбит/с)
Аудио 4: Английский Comment (AC3, 2 ch, 224 Кбит/с)
Субтитры : Русские (Vargnatt), английские
Работа над релизом:
Видеоряд найден в сети
Русский ПМ перевод - студия Лексикон по заказу кинокомпании Парадиз
Русская одноголосая озвучка по субтитрам от Vargnatt - Slavnus
Вся работа по синхронизации дорожек - sasha20072007 (kosmoaelita)Русские субтитры-перевод Vargnatt
DVDRip vs. BDRip



Трейлер

Дополнительно

слоган «Beware of "THE CREEPING UNKNOWN!"»
бюджет £45 000
Also Known As (AKA)
Le monstre Belgium (French title) / France
Xperiment Q Denmark / Sweden
A Quatermass kísérlet Hungary (imdb display title)
El experimento del Dr. Quatermass Spain
L'astronave atomica del dottor Quatermass Italy
Monster van Dr. Quetermass Netherlands (imdb display title)
O Monstro do Espaço Portugal
Panico mortale Mexico (poster title)
Quatermass Finland
Schock West Germany
Shock (undefined)
The Creeping Unknown USA
The Quatermass Experiment USA
The Quatermass Xperiment USA (imdb display title)
X the Experiment UK (informal alternative title)
Этот важный научно-фантастический фильм обозначил разрыв с традиционной подозрительностью, питаемой к науке. Очевиден сильный контраст между паническим страхом перед неизвестностью и ученым Куотермассом, так же исполненным верой в человека, как доктор Франкенштейн. Спецэффектами занимался Лес Боуи, который для создания монтсра использовал внутренности быка. Обратите внимание на эпизод, где маленькая девочка пытается подружиться с мутирующим Виктором Каруном. Эта девочка-Джейн Ашер, будущая невеста Пола Маккартни. Бюджет картины составил 40 тысяч фунтов стерлингов.

MediaInfo

Общее
Уникальный идентификатор : 238406091456490121304406743244856305844 (0xB35B57D1DD78A2E7908EA304AAD328B4)
Полное имя : N:\The Quatermass Xperiment 1955.x264.BDRip.1080p.kosmoaelita.mkv
Формат : Matroska
Версия формата : Version 4 / Version 2
Размер файла : 5,78 Гбайт
Продолжительность : 1 ч. 18 м.
Общий поток : 10,5 Мбит/сек
Название фильма : Эксперимент Куотермасса The Quatermass Xperiment 1955 / kosmoaelita
Дата кодирования : UTC 2014-11-20 00:39:57
Программа кодирования : mkvmerge v6.6.0 ('The Edge Of The In Between') built on Dec 1 2013 17:55:00
Библиотека кодирования : libebml v1.3.0 + libmatroska v1.4.1
Attachements : kinopoisk_ru-The-Quatermass-Xperiment-1373147--o--.jpg / kinopoisk_ru-The-Quatermass-Xperiment-1373148--o--.jpg / kinopoisk_ru-The-Quatermass-Xperiment-1373149--o--.jpg / kinopoisk_ru-The-Quatermass-Xperiment-1373150--o--.jpg
Видео
Идентификатор : 1
Формат : AVC
Формат/Информация : Advanced Video Codec
Профиль формата : High@L4.1
Параметр CABAC формата : Да
Параметр ReFrames формата : 5 кадров
Идентификатор кодека : V_MPEG4/ISO/AVC
Продолжительность : 1 ч. 18 м.
Битрейт : 9293 Кбит/сек
Ширина : 1440 пикселей
Высота : 1080 пикселей
Соотношение сторон : 4:3
Режим частоты кадров : Постоянный
Частота кадров : 25,000 кадров/сек
Цветовое пространство : YUV
Субдискретизация насыщенности : 4:2:0
Битовая глубина : 8 бит
Тип развёртки : Прогрессивная
Бит/(Пиксели*Кадры) : 0.239
Размер потока : 5,00 Гбайт (86%)
Заголовок : kosmoaelita
Библиотека кодирования : x264 core 142 r2431 ac76440
Настройки программы : cabac=1 / ref=5 / deblock=1:0:0 / analyse=0x3:0x113 / me=umh / subme=8 / psy=1 / psy_rd=1.00:0.00 / mixed_ref=1 / me_range=16 / chroma_me=1 / trellis=1 / 8x8dct=1 / cqm=0 / deadzone=21,11 / fast_pskip=1 / chroma_qp_offset=-2 / threads=12 / lookahead_threads=2 / sliced_threads=0 / nr=0 / decimate=1 / interlaced=0 / bluray_compat=0 / constrained_intra=0 / bframes=3 / b_pyramid=2 / b_adapt=2 / b_bias=0 / direct=3 / weightb=1 / open_gop=0 / weightp=2 / keyint=250 / keyint_min=25 / scenecut=40 / intra_refresh=0 / rc_lookahead=50 / rc=2pass / mbtree=1 / bitrate=9293 / ratetol=1.0 / qcomp=0.60 / qpmin=0 / qpmax=69 / qpstep=4 / cplxblur=20.0 / qblur=0.5 / vbv_maxrate=62500 / vbv_bufsize=78125 / nal_hrd=none / filler=0 / ip_ratio=1.40 / aq=1:1.00
Язык : English
Default : Да
Forced : Нет
Аудио #1
Идентификатор : 2
Формат : AC-3
Формат/Информация : Audio Coding 3
Расширение режима : CM (complete main)
Параметр Endianness формата : Big
Идентификатор кодека : A_AC3
Продолжительность : 1 ч. 18 м.
Вид битрейта : Постоянный
Битрейт : 192 Кбит/сек
Каналы : 2 канала
Расположение каналов : Front: L R
Частота : 48,0 КГц
Битовая глубина : 16 бит
Метод сжатия : С потерями
Размер потока : 108 Мбайт (2%)
Заголовок : Русский ПМ (Лексикон)
Язык : Russian
Default : Да
Forced : Нет
Аудио #2
Идентификатор : 3
Формат : AC-3
Формат/Информация : Audio Coding 3
Расширение режима : CM (complete main)
Параметр Endianness формата : Big
Идентификатор кодека : A_AC3
Продолжительность : 1 ч. 18 м.
Вид битрейта : Постоянный
Битрейт : 640 Кбит/сек
Каналы : 2 канала
Расположение каналов : Front: L R
Частота : 48,0 КГц
Битовая глубина : 16 бит
Метод сжатия : С потерями
Размер потока : 360 Мбайт (6%)
Язык : English
Default : Нет
Forced : Нет
Аудио #3
Идентификатор : 4
Формат : AC-3
Формат/Информация : Audio Coding 3
Расширение режима : CM (complete main)
Параметр Endianness формата : Big
Идентификатор кодека : A_AC3
Продолжительность : 1 ч. 18 м.
Вид битрейта : Постоянный
Битрейт : 192 Кбит/сек
Каналы : 2 канала
Расположение каналов : Front: L R
Частота : 48,0 КГц
Битовая глубина : 16 бит
Метод сжатия : С потерями
Размер потока : 108 Мбайт (2%)
Заголовок : Русский ЛО (slavnus)
Язык : Russian
Default : Нет
Forced : Нет
Аудио #4
Идентификатор : 5
Формат : AC-3
Формат/Информация : Audio Coding 3
Расширение режима : CM (complete main)
Параметр Endianness формата : Big
Идентификатор кодека : A_AC3
Продолжительность : 1 ч. 18 м.
Вид битрейта : Постоянный
Битрейт : 192 Кбит/сек
Каналы : 2 канала
Расположение каналов : Front: L R
Частота : 48,0 КГц
Битовая глубина : 16 бит
Метод сжатия : С потерями
Размер потока : 108 Мбайт (2%)
Заголовок : Comment
Язык : English
Default : Нет
Forced : Нет
Текст #1
Идентификатор : 6
Формат : VobSub
Режим смешивания : zlib
Идентификатор кодека : S_VOBSUB
Идентификатор кодека/Информация : The same subtitle format used on DVDs
Заголовок : Русский (Vargnatt) VobSub
Язык : Russian
Default : Да
Forced : Нет
Текст #2
Идентификатор : 7
Формат : UTF-8
Идентификатор кодека : S_TEXT/UTF8
Идентификатор кодека/Информация : UTF-8 Plain Text
Заголовок : Русский (Vargnatt) srt
Язык : Russian
Default : Нет
Forced : Нет
Текст #3
Идентификатор : 8
Формат : UTF-8
Идентификатор кодека : S_TEXT/UTF8
Идентификатор кодека/Информация : UTF-8 Plain Text
Язык : Russian
Default : Нет
Forced : Нет
Меню
00:00:00.000 : en:Chapter 01
00:11:27.960 : en:Chapter 02
00:19:59.560 : en:Chapter 03
00:30:23.560 : en:Chapter 04
00:42:22.400 : en:Chapter 05
00:51:10.160 : en:Chapter 06
00:58:56.920 : en:Chapter 07
01:10:13.000 : en:Chapter 08
01:18:37.640 : en:Chapter 09
01:18:38.840 : en:Chapter 10

Скриншоты










Скринлист

cd Рип дополнительно залит на mail.ru cd2


Last edited by admin on 2014-11-20 04:18; edited 4 times in total
[Profile] [PM]

admin ®

Gender: Male

Longevity: 7 years 9 months

Posts: 4799

Post 20-Nov-2014 04:14 (after 1 minute)

[Quote]

DVDRip vs. BDRip
[Profile] [PM]
Display posts:    
Reply to topic

Current time is: 03-Jun 14:14

All times are UTC + 3



You cannot post new topics in this forum
You cannot reply to topics in this forum
You cannot edit your posts in this forum
You cannot delete your posts in this forum
You cannot vote in polls in this forum
You cannot attach files in this forum
You cannot download files in this forum