Киборг 2087 / Cyborg 2087 (Franklin Adreon) [1966, США, фантастика, VHSRip, BDRip-AVC, BDRip-1080p] АО (Трамвай-фильм)

Reply to topic
 
Author Message

admin ®

Gender: Male

Longevity: 7 years 9 months

Posts: 4799

Post 18-Nov-2014 23:04

[Quote]

Киборг 2087 / Cyborg 2087
Страна: США, Harold Goldman Associates, United Pictures
Жанр: фантастика
Год выпуска: 1966
Продолжительность: 01:25:36 (01:25:36)
Перевод: АО (Трамвай-фильм)
Режиссер: Franklin Adreon
В ролях:
Michael Rennie ... Garth A7
Karen Steele ... Dr. Sharon Mason
Wendell Corey ... Sheriff
Warren Stevens ... Dr. Carl Zellar
Eduard Franz ... Prof. Sigmund Marx
Harry Carey Jr. ... Jay C
Adam Roarke ... Deputy Dan
Chubby Johnson ... Uncle Pete
Tyler MacDuff ... Sam Gilmore
Dale Van Sickel ... Tracer #1
Troy Melton ... Tracer #2
Jimmy Hibbard ... Rick
Sherry Alberoni ... Laura Zellar
Betty Jane Royale ... Jill
John Beck ... Skinny
Описание: Фильм - прародитель Терминатора.
Из далекого тоталитарного будущего группой людей, которые отказываются смириться с тем, что их сознанием управляет горстка «избранных», посылается киборг Горт. Его цель — разыскать некоего ученого, работающего над техникой тотального контроля над человеческим сознанием, и помешать ему сделать свое открытие. Однако в процессе выполнения миссии Горт понимает, что за ним охотятся правительственные агенты, также прибывшие из будущего.

======================================
Качество: VHSRip
Формат: MKV
Видео: x264, 1800 кбит/с, 704x588@768x588, 25 к/с
Аудио 1: Русский АО (Трамвай-фильм) (AC3, 2 ch, 192 Кбит/с)
Аудио 2: Английский (AC3, 2 ch, 192 Кбит/с)
===============================
Качество: BDRip-AVC
Формат: MKV
Видео: x264, 2300 кбит/с, 1024x554, 23,976 к/с, CRF=20,50
Аудио 1: Русский АО (Трамвай-фильм NEW) (AC3, 2 ch, 192 Кбит/с)
Аудио 2: Русский АО (Трамвай-фильм OLD) (AC3, 2 ch, 192 Кбит/с)
Аудио 3: Английский (AC3, 2 ch, 256 Кбит/с)
Аудио 4: Английский Comment(AC3, 2 ch, 256 Кбит/с)
===============================
Качество: BDRip-1080p
Формат: MKV
Видео: x264, 10500 кбит/с, 1920x1040, 23,976 к/с, CRF=21,11
Аудио 1: Русский АО (Трамвай-фильм NEW) (AC3, 2 ch, 192 Кбит/с)
Аудио 2: Русский АО (Трамвай-фильм OLD) (AC3, 2 ch, 192 Кбит/с)
Аудио 3: Английский (AC3, 2 ch, 640 Кбит/с)
Аудио 4: Английский Comment(AC3, 2 ch, 256 Кбит/с)
=========================
Работа над релизом:
Видеоряд VHSRip найден в сети.
Работа с дорожками и контейнером - kosmoaelita
Перевод на слух с английского и озвучка - Трамвай-фильм
Рип с BD25 с синематика - kosmoaelita
VHSRip vs. BDRip



Пример русского перевода

Дополнительно

слоган «His Mission... Stop the Invasion of the Cyborgs!»
Also Known As (AKA)
Man from Tomorrow
Greece (video title) Cyborg 2087
Italy Cyborg anno 2087 metà uomo metà macchina... programmato per uccidere
West Germany Cyborg 2087
================================================
Для Украины: рип и оригинальный ДВД дополнительно залиты в файлохранилище
Для удаления,добавления и извлечения дорожек в mkv используйте бесплатную портативную mkvmerge GUI 7.1.0
Для присоединения потом дорожек к avi воспользуйтесь VirtualDubMod

Знаете ли вы, что...

Фильм - прародитель Терминатора.

Отзывы

Рецензия

Terminator v0,1 Pre-alpha Beta Version
«Terminator 2, I’m your father!», — сказал бы «Киборг 2087» увидев своего «сына» сегодня. Вопреки тому, что киноленты не наделены умом и сообразительностью, что, несомненно, к лучшему, эта переиначенная цитата — полное описание ключевых особенностей фильма-прародителя.
Так, по сюжету из далекого антиутопического будущего отправляют киборга по имени Гарт, который должен воспрепятствовать некому научному открытию, положившему начало развитию радио-телепатии. Это открытие станет роковым, ибо, по мнению авторов, будущее будет представлено тоталитарным строем, состоящим из горстки «избранных», которые контролируют ход мыслей индивидов, пресекая любые протесты последних.
В общем, продолжая тему «отцов и детей», семейному пессимизму обоим произведениям не занимать. Только в отличие от «Терминатора», который под стать Шварцнеггеру, выглядит дорогим, крупнобюджетным мастодонтом, «папаша» страдает тяжелой формой денежной инвалидности, да еще куда добрее и миролюбивей своего отпрыска. Впрочем, и так ясно, что никакого буйства спецэффектов и ураганного экшена, равно как и вразумительной актерской игры, от забытого произведения ожидать не стоит.
Куда важнее другое: атмосфера неповторимого «бреда» категории «В». Стереотипное режиссерское видение будущего, так называемого «ретро-футуризма», подкупает своей искренностью и тривиальностью. Буквально каждый элемент из эстетики будущего, начиная с многокнопочных светящихся панелей управления и заканчивая нелепыми серебристыми сапогами, доставляет необычное, в какой-то степени мазохистское удовольствие, когда все настолько ужасно, что аж прекрасно. Подобные ощущения испытываешь при покупке бутылочки «Coca-Col’ы»: мысленно осознаешь, что вредная гадость, но вместе с тем такая вкусная…
С объективной точки зрения «Киборг 2087» полный треш, который следует обходить десятой дорогой. И если вышеописанная «эстетика будущего» удовольствие специфическое и рассчитанное на людей, соскучившихся по самобытным фильмам «ручной выделки», то отдельные моменты, вроде диалога с киборгом о человеческих чувствах, заставляют проникнуться и поверить, что на экране нечто большее, нежели куча мусора, записанного на пленку.
Схожий контраст характерен и для развязки, которую предваряет скучнейшая драка киборгов. Схватка поставлена в худших традициях безденежных картин, и во многом походит на выяснение отношений двух пьяных трактористов в день выдачи зарплаты. А концовка наоборот — выступает полной противоположностью столь невыразительному действу. Несмотря на прямое нарушение причинно-следственных связей теории путешествия во времени, она берет-таки своей оригинальной и удивительной подачей.
Важно понимать, что никакого ореола смелости и необычности, окутывающего «Киборга 2087», не существует. Это дешевая поделка, идею которой в свое время подхватил, развил, а вскоре превратил в культовую серию о приключении «железного человечка» Джеймс Камерон. Однако, сделав скидку на возраст, инвалидность и слабохарактерность, никому не известное творение имеет шансы стать не самым худшим времяпровождением, благо длительность у неё чуть больше часа.
P.S. Джефф Миллс — гуру электронной музыки, под влиянием «Киборга 2087» в 2011 году выпустил практически одноименный альбом «2087». Как и киноленту — мрачные нарративы, преобладающие в творчестве детройтского исполнителя, по достоинству оценят единицы. Впрочем, это характерно любому творчеству в авангардном стиле, что не отменяет необходимость знакомства, хотя бы для расширения вкусовых горизонтов.
5 из 10

MediaInfo

Общее
Уникальный идентификатор : 212485847242206857035368591619236436324 (0x9FDB491CD591BBF98C4FB41CBA121964)
Полное имя : Cyborg 2087 1966.x264.VHSRip.Rus.kosmoaelita.mkv
Формат : Matroska
Версия формата : Version 4 / Version 2
Размер файла : 1,32 Гбайт
Продолжительность : 1 ч. 25 м.
Общий поток : 2201 Кбит/сек
Название фильма : Cyborg 2087 (1966)
Дата кодирования : UTC 2014-11-18 18:23:03
Программа кодирования : mkvmerge v6.6.0 ('The Edge Of The In Between') built on Dec 1 2013 17:55:00
Библиотека кодирования : libebml v1.3.0 + libmatroska v1.4.1
Видео
Идентификатор : 1
Формат : AVC
Формат/Информация : Advanced Video Codec
Профиль формата : Main@L4.0
Параметр CABAC формата : Да
Параметр ReFrames формата : 4 кадра
Идентификатор кодека : V_MPEG4/ISO/AVC
Продолжительность : 1 ч. 25 м.
Битрейт : 1800 Кбит/сек
Ширина : 704 пикселя
Высота : 588 пикселей
Соотношение сторон : 4:3
Соотношение сторон в оригинале : 4:3
Режим частоты кадров : Постоянный
Частота кадров : 25,000 кадров/сек
Цветовое пространство : YUV
Субдискретизация насыщенности : 4:2:0
Битовая глубина : 8 бит
Тип развёртки : Прогрессивная
Бит/(Пиксели*Кадры) : 0.174
Размер потока : 1,06 Гбайт (81%)
Библиотека кодирования : x264 core 130 r2273 b3065e6
Настройки программы : cabac=1 / ref=1 / deblock=1:0:0 / analyse=0x1:0x111 / me=hex / subme=2 / psy=1 / psy_rd=1.00:0.00 / mixed_ref=0 / me_range=16 / chroma_me=1 / trellis=0 / 8x8dct=0 / cqm=0 / deadzone=21,11 / fast_pskip=1 / chroma_qp_offset=0 / threads=3 / lookahead_threads=1 / sliced_threads=0 / nr=0 / decimate=1 / interlaced=0 / bluray_compat=0 / constrained_intra=0 / bframes=3 / b_pyramid=2 / b_adapt=1 / b_bias=0 / direct=1 / weightb=1 / open_gop=0 / weightp=1 / keyint=250 / keyint_min=25 / scenecut=40 / intra_refresh=0 / rc_lookahead=10 / rc=abr / mbtree=1 / bitrate=1800 / ratetol=1.0 / qcomp=0.60 / qpmin=0 / qpmax=69 / qpstep=4 / vbv_maxrate=20000 / vbv_bufsize=25000 / nal_hrd=none / ip_ratio=1.40 / aq=1:1.00
Язык : English
Default : Да
Forced : Нет
Основные цвета : BT.601 PAL
Характеристики трансфера : BT.709
Коэффициенты матрицы : BT.601
Аудио #1
Идентификатор : 2
Формат : AC-3
Формат/Информация : Audio Coding 3
Расширение режима : CM (complete main)
Параметр Endianness формата : Big
Идентификатор кодека : A_AC3
Продолжительность : 1 ч. 25 м.
Вид битрейта : Постоянный
Битрейт : 192 Кбит/сек
Каналы : 2 канала
Расположение каналов : Front: L R
Частота : 48,0 КГц
Битовая глубина : 16 бит
Метод сжатия : С потерями
Размер потока : 118 Мбайт (9%)
Заголовок : Русский АО (Трамвай-фильм)
Язык : Russian
Default : Да
Forced : Нет
Аудио #2
Идентификатор : 3
Формат : AC-3
Формат/Информация : Audio Coding 3
Расширение режима : CM (complete main)
Параметр Endianness формата : Big
Идентификатор кодека : A_AC3
Продолжительность : 1 ч. 25 м.
Вид битрейта : Постоянный
Битрейт : 192 Кбит/сек
Каналы : 2 канала
Расположение каналов : Front: L R
Частота : 48,0 КГц
Битовая глубина : 16 бит
Метод сжатия : С потерями
Размер потока : 118 Мбайт (9%)
Язык : English
Default : Нет
Forced : Нет

MediaInfo BDRip-AVC

Общее
Уникальный идентификатор : 233246286135678804741804420141572415692 (0xAF7999C6BA158F5E80E9E1A4458BE0CC)
Полное имя : Cyborg 2087 1966.x264.BDRip.AVC.Rus..kosmoaelita.mkv
Формат : Matroska
Версия формата : Version 4
Размер файла : 1,92 Гбайт
Продолжительность : 1 ч. 25 м.
Общий поток : 3199 Кбит/сек
Название фильма : Cyborg 2087 / 1966 / rip from BD25 by sasha20072007 (kosmoaelita) (2017-11-02), crf=20.51
Дата кодирования : UTC 2019-11-10 08:08:47
Программа кодирования : mkvmerge v6.6.0 ('The Edge Of The In Between') built on Dec 1 2013 17:55:00
Библиотека кодирования : libebml v1.3.0 + libmatroska v1.4.1
Attachments : POSTER.jpg / 00004.mkv.encoding.log
Видео
Идентификатор : 1
Формат : AVC
Формат/Информация : Advanced Video Codec
Профиль формата : High@L4.1
Настройки формата : CABAC / 8 Ref Frames
Параметр CABAC формата : Да
Параметр RefFrames формата : 8 кадров
Идентификатор кодека : V_MPEG4/ISO/AVC
Продолжительность : 1 ч. 25 м.
Битрейт : 2300 Кбит/сек
Ширина : 1024 пикселя
Высота : 554 пикселя
Соотношение сторон : 1,85:1
Режим частоты кадров : Постоянный
Частота кадров : 23,976 (23976/1000) кадра/сек
Цветовое пространство : YUV
Субдискретизация насыщенности : 4:2:0
Битовая глубина : 8 бит
Тип развёртки : Прогрессивная
Бит/(Пиксели*Кадры) : 0.169
Размер потока : 1,34 Гбайт (70%)
Заголовок : http://kosmoaelita.com/viewtopic.php?t=1462
Библиотека кодирования : x264 core 130 r2273 b3065e6
Настройки программы : cabac=1 / ref=8 / deblock=1:-2:-2 / analyse=0x3:0x133 / me=umh / subme=11 / psy=1 / psy_rd=0.99:0.14 / mixed_ref=1 / me_range=24 / chroma_me=1 / trellis=2 / 8x8dct=1 / cqm=0 / deadzone=21,11 / fast_pskip=1 / chroma_qp_offset=-3 / threads=6 / lookahead_threads=1 / sliced_threads=0 / nr=0 / decimate=1 / interlaced=0 / bluray_compat=0 / constrained_intra=0 / bframes=8 / b_pyramid=2 / b_adapt=2 / b_bias=0 / direct=3 / weightb=1 / open_gop=0 / weightp=2 / keyint=210 / keyint_min=21 / scenecut=40 / intra_refresh=0 / rc_lookahead=60 / rc=2pass / mbtree=1 / bitrate=2300 / ratetol=1.0 / qcomp=0.65 / qpmin=0 / qpmax=69 / qpstep=4 / cplxblur=20.0 / qblur=0.5 / ip_ratio=1.25 / aq=1:0.90
Язык : English
Default : Да
Forced : Нет
Цветовой диапазон : Limited
Основные цвета : BT.709
Характеристики трансфера : BT.709
Коэффициенты матрицы : BT.709
Аудио #1
Идентификатор : 2
Формат : AC-3
Формат/Информация : Audio Coding 3
Коммерческое название : Dolby Digital
Идентификатор кодека : A_AC3
Продолжительность : 1 ч. 25 м.
Вид битрейта : Постоянный
Битрейт : 192 Кбит/сек
Каналы : 2 канала
ChannelLayout : L R
Частота : 48,0 КГц
Частота кадров : 31,250 кадров/сек (1536 SPF)
Метод сжатия : С потерями
Размер потока : 118 Мбайт (6%)
Заголовок : Русский АО (Трамвай-фильм) NEW
Язык : Russian
ServiceKind/String : Complete Main
Default : Да
Forced : Нет
Аудио #2
Идентификатор : 3
Формат : AC-3
Формат/Информация : Audio Coding 3
Коммерческое название : Dolby Digital
Идентификатор кодека : A_AC3
Продолжительность : 1 ч. 25 м.
Вид битрейта : Постоянный
Битрейт : 192 Кбит/сек
Каналы : 2 канала
ChannelLayout : L R
Частота : 48,0 КГц
Частота кадров : 31,250 кадров/сек (1536 SPF)
Метод сжатия : С потерями
Размер потока : 118 Мбайт (6%)
Заголовок : Русский АО (Трамвай-фильм) OLD
Язык : Russian
ServiceKind/String : Complete Main
Default : Нет
Forced : Нет
Аудио #3
Идентификатор : 4
Формат : AC-3
Формат/Информация : Audio Coding 3
Коммерческое название : Dolby Digital
Идентификатор кодека : A_AC3
Продолжительность : 1 ч. 25 м.
Вид битрейта : Постоянный
Битрейт : 256 Кбит/сек
Каналы : 2 канала
ChannelLayout : L R
Частота : 48,0 КГц
Частота кадров : 31,250 кадров/сек (1536 SPF)
Метод сжатия : С потерями
Размер потока : 157 Мбайт (8%)
Язык : English
ServiceKind/String : Complete Main
Default : Нет
Forced : Нет
Аудио #4
Идентификатор : 5
Формат : AC-3
Формат/Информация : Audio Coding 3
Коммерческое название : Dolby Digital
Идентификатор кодека : A_AC3
Продолжительность : 1 ч. 25 м.
Вид битрейта : Постоянный
Битрейт : 256 Кбит/сек
Каналы : 2 канала
ChannelLayout : L R
Частота : 48,0 КГц
Частота кадров : 31,250 кадров/сек (1536 SPF)
Метод сжатия : С потерями
Размер потока : 157 Мбайт (8%)
Заголовок : Comment
Язык : English
ServiceKind/String : Complete Main
Default : Нет
Forced : Нет
Меню
00:00:00.000 : en:00:00:00.000
00:12:30.708 : en:00:12:30.708
00:20:02.159 : en:00:20:02.159
00:29:39.611 : en:00:29:39.611
00:43:18.387 : en:00:43:18.387
00:55:49.513 : en:00:55:49.513
01:05:19.040 : en:01:05:19.040
01:15:11.298 : en:01:15:11.298
01:25:55.359 : en:01:25:55.359

MediaInfo BDRip-1080p

Общее
Уникальный идентификатор : 175431810578924508990314821558821394566 (0x83FAF00E5D997EF6AAF5D41AB3671886)
Полное имя : Cyborg 2087 1966.x264.BDRip.1080p.Rus..kosmoaelita.mkv
Формат : Matroska
Версия формата : Version 4
Размер файла : 7,06 Гбайт
Продолжительность : 1 ч. 25 м.
Общий поток : 11,8 Мбит/сек
Название фильма : Cyborg 2087 / 1966 / rip from BD25 by sasha20072007 (kosmoaelita) (2017-11-03), crf=21.11
Дата кодирования : UTC 2019-11-10 11:04:17
Программа кодирования : mkvmerge v7.8.0 ('River Man') 32bit built on Mar 27 2015 16:18:02
Библиотека кодирования : libebml v1.3.1 + libmatroska v1.4.2
Attachments : CYBORG 2087.mkv.encoding.log / POSTER.jpg
Видео
Идентификатор : 1
Формат : AVC
Формат/Информация : Advanced Video Codec
Профиль формата : High@L4.1
Настройки формата : CABAC / 4 Ref Frames
Параметр CABAC формата : Да
Параметр RefFrames формата : 4 кадра
Идентификатор кодека : V_MPEG4/ISO/AVC
Продолжительность : 1 ч. 25 м.
Битрейт : 10,5 Мбит/сек
Ширина : 1920 пикселей
Высота : 1040 пикселей
Соотношение сторон : 1,85:1
Режим частоты кадров : Постоянный
Частота кадров : 23,976 (23976/1000) кадра/сек
Цветовое пространство : YUV
Субдискретизация насыщенности : 4:2:0
Битовая глубина : 8 бит
Тип развёртки : Прогрессивная
Бит/(Пиксели*Кадры) : 0.219
Размер потока : 6,15 Гбайт (87%)
Заголовок : http://kosmoaelita.com/viewtopic.php?t=1462
Библиотека кодирования : x264 core 130 r2273 b3065e6
Настройки программы : cabac=1 / ref=4 / deblock=1:-2:-2 / analyse=0x3:0x133 / me=umh / subme=10 / psy=1 / psy_rd=0.99:0.14 / mixed_ref=1 / me_range=32 / chroma_me=1 / trellis=2 / 8x8dct=1 / cqm=0 / deadzone=21,11 / fast_pskip=1 / chroma_qp_offset=-3 / threads=6 / lookahead_threads=1 / sliced_threads=0 / nr=0 / decimate=1 / interlaced=0 / bluray_compat=0 / constrained_intra=0 / bframes=8 / b_pyramid=2 / b_adapt=2 / b_bias=0 / direct=3 / weightb=1 / open_gop=0 / weightp=2 / keyint=210 / keyint_min=21 / scenecut=40 / intra_refresh=0 / rc_lookahead=60 / rc=2pass / mbtree=1 / bitrate=10500 / ratetol=1.0 / qcomp=0.65 / qpmin=0 / qpmax=69 / qpstep=4 / cplxblur=20.0 / qblur=0.5 / ip_ratio=1.25 / aq=1:0.90
Язык : English
Default : Да
Forced : Нет
Цветовой диапазон : Limited
Основные цвета : BT.709
Характеристики трансфера : BT.709
Коэффициенты матрицы : BT.709
Аудио #1
Идентификатор : 2
Формат : AC-3
Формат/Информация : Audio Coding 3
Коммерческое название : Dolby Digital
Идентификатор кодека : A_AC3
Продолжительность : 1 ч. 25 м.
Вид битрейта : Постоянный
Битрейт : 192 Кбит/сек
Каналы : 2 канала
ChannelLayout : L R
Частота : 48,0 КГц
Частота кадров : 31,250 кадров/сек (1536 SPF)
Метод сжатия : С потерями
Размер потока : 118 Мбайт (2%)
Заголовок : Русский АО (Трамвай-фильм) NEW
Язык : Russian
ServiceKind/String : Complete Main
Default : Да
Forced : Нет
Аудио #2
Идентификатор : 3
Формат : AC-3
Формат/Информация : Audio Coding 3
Коммерческое название : Dolby Digital
Идентификатор кодека : A_AC3
Продолжительность : 1 ч. 25 м.
Вид битрейта : Постоянный
Битрейт : 192 Кбит/сек
Каналы : 2 канала
ChannelLayout : L R
Частота : 48,0 КГц
Частота кадров : 31,250 кадров/сек (1536 SPF)
Метод сжатия : С потерями
Размер потока : 118 Мбайт (2%)
Заголовок : Русский АО (Трамвай-фильм) OLD
Язык : Russian
ServiceKind/String : Complete Main
Default : Нет
Forced : Нет
Аудио #3
Идентификатор : 4
Формат : AC-3
Формат/Информация : Audio Coding 3
Коммерческое название : Dolby Digital
Идентификатор кодека : A_AC3
Продолжительность : 1 ч. 25 м.
Вид битрейта : Постоянный
Битрейт : 640 Кбит/сек
Каналы : 2 канала
ChannelLayout : L R
Частота : 48,0 КГц
Частота кадров : 31,250 кадров/сек (1536 SPF)
Метод сжатия : С потерями
Размер потока : 393 Мбайт (5%)
Язык : English
ServiceKind/String : Complete Main
Default : Нет
Forced : Нет
Аудио #4
Идентификатор : 5
Формат : AC-3
Формат/Информация : Audio Coding 3
Коммерческое название : Dolby Digital
Идентификатор кодека : A_AC3
Продолжительность : 1 ч. 25 м.
Вид битрейта : Постоянный
Битрейт : 256 Кбит/сек
Каналы : 2 канала
ChannelLayout : L R
Частота : 48,0 КГц
Частота кадров : 31,250 кадров/сек (1536 SPF)
Метод сжатия : С потерями
Размер потока : 157 Мбайт (2%)
Заголовок : Comment
Язык : English
ServiceKind/String : Complete Main
Default : Нет
Forced : Нет
Меню
00:00:00.000 : en:00:00:00.000
00:12:30.708 : en:00:12:30.708
00:20:02.159 : en:00:20:02.159
00:29:39.611 : en:00:29:39.611
00:43:18.387 : en:00:43:18.387
00:55:49.513 : en:00:55:49.513
01:05:19.040 : en:01:05:19.040
01:15:11.298 : en:01:15:11.298
01:25:55.359 : en:01:25:55.359

Скриншоты






Скриншоты BDRip-AVC







Скринлист

Скринлист BDRip-AVC

cd Рип дополнительно залит на mail.ru cd2
[Profile] [PM]

Guest

Gender: Unknown

Post 19-Nov-2014 08:42 (after 9 hours)

[Quote]

Неплохое, кстати, кино. Смотрел еще по-английски.
 

Guest

Gender: Unknown

Longevity: 50 years

Post 02-Nov-2017 13:34 (after 2 years 11 months)

[Quote]

На ОБЛАКО добавлен BDRip-AVC и BDRip-1080p
DVDRip vs. BDRip

[Profile] [PM]
Display posts:    
Reply to topic

Current time is: 07-Jun 01:27

All times are UTC + 3



You cannot post new topics in this forum
You cannot reply to topics in this forum
You cannot edit your posts in this forum
You cannot delete your posts in this forum
You cannot vote in polls in this forum
You cannot attach files in this forum
You cannot download files in this forum