Три Балбеса на орбите / The Three Stooges in Orbit (Edward Bernds) [1962, США, фантастика, комедия, WEBDL-1080p] ЛО (den904), СТ (kosmoaelita, koto2008)

Reply to topic
 
Author Message

admin ®

Gender: Male

Longevity: 7 years 5 months

Posts: 4813

Post 09-Nov-2014 23:03

[Quote]

Три Балбеса на орбите / The Three Stooges in Orbit
Релиз - kosmoaelita. com
Страна: США, Columbia Pictures Corporation, Normandy Productions
Жанр: фантастика, комедия, сатира
Год выпуска: 1962
Продолжительность: 01:27:39
Перевод: ЛО den904 по субтитрам от koto2008
Режиссер: Edward Bernds
В ролях:
Joe DeRita ... Curly-Joe (as The Three Stooges)
Larry Fine ... Larry (as The Three Stooges)
Moe Howard ... Moe (as The Three Stooges)
Carol Christensen ... Carol Danforth
Edson Stroll ... Captain Tom Andrews
Emil Sitka ... Professor Danforth
George N. Neise ... Ogg / Airline Pilot
Rayford Barnes ... Zogg / Airline Co-Pilot
Norman Leavitt ... Williams
Nestor Paiva ... Chairman
Don Lamond ... Colonel Smithers
Peter Brocco ... Doctor Appleby
Thomas Glynn ... George Galveston
Jean Charney ... WAF Sergeant
Peter Dawson ... General Bixby
Описание: The Three Stooges have a show to do, but since the rehearsals require cooking, they manage to get themselves thrown out of every hotel they can find. They finally find room and board at the home of the goofy inventor, Professor Danforth, but that home has it's own problems. Namely, the Professor is working on a new all-terrain, flying, space worthy submersible. With some persuading, the Stooges agree to help him finish his invention and demonstrate it to the military. However, the Martians are interested in the vechile as well and when they learn of its perfection, they plan to steal it and destroy the Earth. Like it or not, the fate of the world rests on the courage of Moe, Larry and Curly-Joe.
Релиз

Качество: WEBDL-1080p
Формат: MKV
Видео: x264, 14200 кбит/с, 853x1080, 23.976 к/с
Аудио 1: Русский ЛО (den904) (AC3, 2 ch, 256 Кбит/с)
Аудио 2: Английский (AC3, 2 ch, 256 Кбит/с)
Субтитры : Русские (koto2008), английские, турецкие
Работа над релизом:
Видеоряд найден на rarbg2018.org
Перевод с англ. субтитров по заказу kosmoaelita - koto2008
Русская озвучка по заказу kosmoaelita - den904
Спонсор русской озвучки - Андрей Берг
Переналожение русского голоса - kosmoaelita



Трейлер

Пример русской озвучки:

Дополнительно

слоган «IT'S NEW! IT'S NUTTY! THE STOOGES»
бюджет $450 000
Also Known As (AKA)
Brazil Os Três Patetas em Órbita
Brazil (cable TV title) Os três Patetas em Órbita
Greece (transliterated ISO-LATIN-1 title) To trio Stooges sto diastima
Mexico Los tres chiflados en órbita
Portugal Três Estarolas em Órbita

Знаете ли вы, что...

MediaInfo

Общее
Уникальный идентификатор : 252755966247902715745010308125292537541 (0xBE270745596C8E73881C43DAFB40A6C5)
Полное имя : N:\BD-DISC\The.Three.Stooges.In.Orbit.1962.1080p.AMZN.WEBRip.DDP2.0.x264-ETHiCS\The.Three.Stooges.In.Orbit.1962.x264.WEBDL.1080p.Rus.kosmoaelita.mkv
Формат : Matroska
Версия формата : Version 4
Размер файла : 9,27 Гбайт
Продолжительность : 1 ч. 28 м.
Общий поток : 15,0 Мбит/сек
Название фильма : Три Балбеса на орбите / The Three Stooges in Orbit / 1962 / релиз kosmoaelita
Дата кодирования : UTC 2020-01-09 22:03:37
Программа кодирования : mkvmerge v6.6.0 ('The Edge Of The In Between') built on Dec 1 2013 17:55:00
Библиотека кодирования : libebml v1.3.0 + libmatroska v1.4.1
Attachments : POSTER.jpg
Видео
Идентификатор : 1
Формат : AVC
Формат/Информация : Advanced Video Codec
Профиль формата : High@L4
Настройки формата : CABAC / 4 Ref Frames
Параметр CABAC формата : Да
Параметр RefFrames формата : 4 кадра
Идентификатор кодека : V_MPEG4/ISO/AVC
Продолжительность : 1 ч. 28 м.
Битрейт : 14,2 Мбит/сек
Ширина : 1920 пикселей
Высота : 1080 пикселей
Соотношение сторон : 16:9
Режим частоты кадров : Постоянный
Частота кадров : 23,976 (24000/1001) кадра/сек
Цветовое пространство : YUV
Субдискретизация насыщенности : 4:2:0
Битовая глубина : 8 бит
Тип развёртки : Прогрессивная
Бит/(Пиксели*Кадры) : 0.285
Размер потока : 8,77 Гбайт (95%)
Заголовок : http://kosmoaelita.com/viewtopic.php?t=1453
Default : Да
Forced : Нет
Цветовой диапазон : Limited
Основные цвета : BT.709
Характеристики трансфера : BT.709
Коэффициенты матрицы : BT.709
Аудио #1
Идентификатор : 2
Формат : AC-3
Формат/Информация : Audio Coding 3
Коммерческое название : Dolby Digital
Идентификатор кодека : A_AC3
Продолжительность : 1 ч. 28 м.
Вид битрейта : Постоянный
Битрейт : 256 Кбит/сек
Каналы : 2 канала
ChannelLayout : L R
Частота : 48,0 КГц
Частота кадров : 31,250 кадров/сек (1536 SPF)
Метод сжатия : С потерями
Размер потока : 162 Мбайт (2%)
Заголовок : Русский ЛО (den904 для kosmoaelita.com) - поддержка А.Берг
Язык : Russian
ServiceKind/String : Complete Main
Default : Да
Forced : Нет
Аудио #2
Идентификатор : 3
Формат : AC-3
Формат/Информация : Audio Coding 3
Коммерческое название : Dolby Digital
Идентификатор кодека : A_AC3
Продолжительность : 1 ч. 28 м.
Вид битрейта : Постоянный
Битрейт : 256 Кбит/сек
Каналы : 2 канала
ChannelLayout : L R
Частота : 48,0 КГц
Частота кадров : 31,250 кадров/сек (1536 SPF)
Метод сжатия : С потерями
Размер потока : 162 Мбайт (2%)
Язык : English
ServiceKind/String : Complete Main
Default : Нет
Forced : Нет
Текст #1
Идентификатор : 4
Формат : PGS
Режим смешивания : zlib
Идентификатор кодека : S_HDMV/PGS
Идентификатор кодека/Информация : Picture based subtitle format used on BDs/HD-DVDs
Заголовок : Русский (kosmoaelita,koto2008) PGS - с англ. субт
Язык : Russian
Default : Да
Forced : Нет
Текст #2
Идентификатор : 5
Формат : UTF-8
Идентификатор кодека : S_TEXT/UTF8
Идентификатор кодека/Информация : UTF-8 Plain Text
Заголовок : Русский (kosmoaelita,koto2008) srt - с англ. субт
Язык : Russian
Default : Нет
Forced : Нет
Текст #3
Идентификатор : 6
Формат : UTF-8
Идентификатор кодека : S_TEXT/UTF8
Идентификатор кодека/Информация : UTF-8 Plain Text
Заголовок : SDH
Язык : English
Default : Нет
Forced : Нет
Текст #4
Идентификатор : 7
Формат : UTF-8
Идентификатор кодека : S_TEXT/UTF8
Идентификатор кодека/Информация : UTF-8 Plain Text
Язык : Turkish
Default : Нет
Forced : Нет

Пример субтитров

1
00:00:04,659 --> 00:00:09,528
Коламбия представляет
2
00:00:17,659 --> 00:00:20,528
Нет другого такого небесного тела
в бескрайнем море космоса,
3
00:00:20,553 --> 00:00:22,653
которое бы вызывало
больше любопытства...
4
00:00:22,697 --> 00:00:25,063
...чем планета Марс.
5
00:00:25,300 --> 00:00:29,930
В частности,
внешний вид марсианской жизни.
6
00:00:30,171 --> 00:00:34,668
Веками астрономы тщетно искали...
решение этой загадки.
-----------------------
871
01:27:00,957 --> 01:27:02,515
Обещание есть обещание.
872
01:27:02,692 --> 01:27:06,219
- Мы упали, как снег на голову.
- Мы упали на свои головы.
873
01:27:21,811 --> 01:27:23,369
Если их нельзя полизать,
присоединяйся к ним.
874
01:27:24,811 --> 01:27:27,369
Койнецц!

Скриншоты





















Скринлист



Last edited by admin on 2015-05-12 05:31; edited 7 times in total
[Profile] [PM]

admin ®

Gender: Male

Longevity: 7 years 5 months

Posts: 4813

Post 10-Nov-2014 23:54 (after 1 day)

[Quote]

Еще о Балбесах в космосе
http://kosmoaelita.com/viewtopic.php?t=1440
[Profile] [PM]

Guest

Gender: Unknown

Post 13-Nov-2014 00:33 (after 2 days)

[Quote]

ai
 

admin ®

Gender: Male

Longevity: 7 years 5 months

Posts: 4813

Post 12-May-2015 04:12 (after 6 months)

[Quote]

Добавлена русская озвучка
[Profile] [PM]

kosmoaelita

Gender: Male

Longevity: 7 years 5 months

Posts: 1298

Post 13-Oct-2016 09:40 (after 1 year 5 months)

[Quote]

Замена на видеоряд лучшего качества
[Profile] [PM]

kosmoaelita

Gender: Male

Longevity: 7 years 5 months

Posts: 1298

Post 10-Jan-2020 02:24 (after 3 years 2 months)

[Quote]

Замена на
WEBDL-1080p
[Profile] [PM]

Starlay

Gender: Male

Longevity: 2 months 12 days

Posts: 55

Post 12-Jan-2020 21:47 (after 2 days 19 hours)

[Quote]

Интересно, идея с Моргуновым, Никулиным и Вициным ака Бывалым, Балбесом и Трусом не оттуда ли "подчерпнута"? Штатовские Балбесы раньше советских начали. Правда, Моргунов, Никулин и Вицин до космоса так и не добрались.
[Profile] [PM]
Display posts:    
Reply to topic

Current time is: 18-Feb 14:07

All times are UTC + 3



You cannot post new topics in this forum
You cannot reply to topics in this forum
You cannot edit your posts in this forum
You cannot delete your posts in this forum
You cannot vote in polls in this forum
You cannot attach files in this forum
You cannot download files in this forum