Колония / The Advanced Guard / The Colony [1998, США, фантастика, DVDRip] ПМ (ТВ3), ПД (Екатеринбург Арт)

Reply to topic
 
Author Message

Guest ®

Gender: Unknown

Post 08-Nov-2014 10:19

[Quote]

Колония / The Advanced Guard / The Colony
Страна: США, Sci-Fi Channel, The, Trimark Pictures
Жанр: фантастика
Год выпуска: 1998
Продолжительность: 01:32:38
Перевод 1: Профессиональный (многоголосый закадровый) ТВ3
Перевод 2: Профессиональный (двухголосый закадровый) студия Ракурс по заказу Екатеринбург Арт) с VHS
Режиссер: Peter Geiger
В ролях:
Robert Amico ... Homeless Man killed by Bravo
James Avery ... Fred, Captive Security Guard
David Campbell ... Cop 2
Cristi Conaway ... Charley, Alien
Michelle Davison ... Ailene, Fred's Girl
Isabella Hofmann ... Harper, Alien Scientist
Jeff Kober ... Desmond, Captive Red Neck
Eric Allan Kramer ... Brovo, Alien Goon
Nonie Muse ... Girl
John Prosky ... Alpha the Alien Commander
Clare Salstrom ... Laura, Captive
James Sebastian ... Man
David Jean Thomas ... Cop 1
Michael Weatherly ... Kevin, Captive
Описание: Раса космических хищников перемещается с планеты на планету, поглощая все природные ресурсы и порабощая население. Они похищают четверых землян для «изучения» людей. Если не удастся найти ключ к контролю над населением Земли, оно будет уничтожено для обеспечения свободного доступа к ресурсам планеты. Но испытуемые не поддаются манипулированию. Более того, проявляется сильное действие людей на пришельцев. Одна из иноземных особей начинает испытывать чувства, присущие землянам, из — за прибывания в человеческом теле и тесного общения с четырьмя похищенными. Проявив незаурядное мужество, четверо землян вступают в отчаянную схватку, которая должна спасти все человечество. Но успеют ли они остановить вражеский космический флот, получивший сигнал к уничтожениюнаселения Земли? Обратный отсчет уже пошел.
Качество: DVDRip
Формат: MKV
Видео: x264, 1855 кбит/с, 720x540, 23.976 к/с, crf=18
Аудио 1: Русский ПМ (ТВ-3) (AC3, 2 ch, 192 Кбит/с)
Аудио 2: Русский ПД (Екатеринбург Арт) (AC3, 2 ch, 192 Кбит/с)
Аудио 3: Английский (AC3, 2 ch, 192 Кбит/с)
Субтитры : Английские, французские, испанские
Работа над релизом:
Рип с NTSC DVD5 с CG - sasha20072007 (kosmoaelita)
Синхронизация русской дорожки - kosmoaelita



Трейлер

Дополнительно

рейтинг MPAA - R лицам до 17 лет обязательно присутствие взрослого
Also Known As (AKA)
Brazil Aniquilação
Germany (cable TV title) Das Komitee
Greece (video title) I apoikia
Hungary Kolónia
Portugal Novo Mundo
USA (video title) The Colony
================================================
Для Украины: рип и оригинальный ДВД дополнительно залиты в файлохранилище
Для удаления,добавления и извлечения дорожек в mkv используйте бесплатную портативную mkvmerge GUI 7.1.0
Для присоединения потом дорожек к avi воспользуйтесь VirtualDubMod

Отзывы

А, неплохой фильмец, хоть и простенький...
Может, с диалогами и небольшой перебор, но - не напрягает...
----------------------------------------------------------------------------
ну и где "Раса космических хищников" на скринах?
есть там существа интересные, или это такое же фуфло как They Live и прочие фильмы, где элиены под хуманоидов подделывались?Инопланетяне там используют человеческие тела, а сами лежат в капсулах, как в аватаре
----------------------------------------------------
Фильм из разряда малобюджетных. Снято телекамерой, для телеканала. Скорее напоминает советские телефильмы. Сюжет простенький...инопланетяне гатские создания, раса паразитов, одурачены и обмануты...любовь всё победила
На один раз да и то для любителей!

Лог кодирования

PLATFORM
------------------------------
OS Code: Microsoft Windows NT 5.1.2600 Service Pack 4
OS Name: Microsoft Windows XP Service Pack 4 (x32)
Framework: 2.0.50727.3082 (v4.0)
AviSynth: AviSynth 2.60, build:Sep 28 2013 [15:09:12]
CPU Info: AMD Phenom(tm) II X4 945 Processor (~3149), 4 core(s)
RAM Total: 3325Mb
Language: RUS (1251, ",")
SystemDrive: C:
XviD4PSP
------------------------------
Version: 5.10.331.0
Created: 05.10.2014 11:44:56
AppPath: C:\Program Files\XviD4PSP 5
TempPath: H:\TEMP
FILES
------------------------------
VTS_01_1_003.VOB >
VTS_01_1_003.mkv
TASK
------------------------------
Format: MKV
Duration: 01:32:38:016 (133259)
VideoDecoder: MPEG2Source
Resolution: 704x480 > 720x540
Aspect: 1.3333
VCodecPreset: Custom
VEncodingMode: TwoPassSize
VideoCodec: MPEG2 > x264
Size: 3999.8 mb > 1362.0 mb
Quality: 0.566 > 0.199
Framerate: 29.970 > 23.976
FramerateModifier: AssumeFPS
SourceType: HYBRID_FILM_INTERLACED
FieldOrder: TFF
Deinterlacer: TIVTC_TDeintEDI
AEncodingPreset: Copy
AudioCodec: AC3
AudioBitrate: 192
Samplerate: 48000
Channels: 2
SCRIPT
------------------------------
Import("C:\Program Files\XviD4PSP 5\dlls\AviSynth\functions\AudioFunctions.avs")
Import("C:\Program Files\XviD4PSP 5\dlls\AviSynth\functions\VideoFunctions.avs")
LoadPlugin("C:\Program Files\XviD4PSP 5\apps\DGMPGDec\DGDecode.dll")
LoadPlugin("C:\Program Files\XviD4PSP 5\dlls\AviSynth\plugins\NicAudio.dll")
LoadPlugin("C:\Program Files\XviD4PSP 5\dlls\AviSynth\plugins\TIVTC.dll")
LoadPlugin("C:\Program Files\XviD4PSP 5\dlls\AviSynth\plugins\TDeint.dll")
LoadPlugin("C:\Program Files\XviD4PSP 5\dlls\AviSynth\plugins\nnedi3.dll")
LoadPlugin("C:\Program Files\XviD4PSP 5\dlls\AviSynth\plugins\TMM.dll")
video = MPEG2Source("H:\TEMP\VTS_01_1_003.index\VTS_01_1_003.d2v", cpu=0, info=3)
audio = NicAC3Source("H:\TEMP\VTS_01_1_003.index\VTS_01_1_003 T80 2_0ch 192Kbps DELAY 0ms.ac3")
AudioDub(video, audio)
ConvertToYV12(interlaced = true)
interp = nnedi3(field=1, qual=2)
tmmask = TMM(order=1, field=1)
deint = TDeint(order=1, field=1, edeint=interp, slow=2, emask=tmmask)
TFM(order=1, mode=3, clip2=deint, slow=2).TDecimate(hybrid=1)
###[FILTERING]###
###[FILTERING]###
Spline64Resize(720, 540)
Используем готовый файл: H:\TEMP\VTS_01_1_003.index\VTS_01_1_003 T80 2_0ch 192Kbps DELAY 0ms.ac3
VIDEO ENCODING
------------------------------
Encoding video to: H:\TEMP\1908.264
x264 1855kbps 720x540 23.976fps (133259 frames)
...first pass...
x264.exe: --pass 1 --bitrate 1855 --preset veryslow --tune film --level 4.1 --ref 10 --aq-strength 0.9 --deblock -1:0 --bframes 10 --psy-rd 0.99:0.14 --qcomp 0.65 --subme 11 --rc-lookahead 80 --keyint 210 --ipratio 1.25 --pbratio 1.17 --colorprim bt470bg --transfer bt470bg --colormatrix bt470bg --sar 1:1 --stats "H:\TEMP\1908.log" --output NUL "H:\TEMP\1908.avs"
avs [info]: 720x540p 1:1 @ 24000/1001 fps (cfr)
x264 [info]: using SAR=1/1
x264 [info]: using cpu capabilities: MMX2 SSE2Fast SSEMisalign LZCNT
x264 [info]: profile Main, level 4.1
x264 [info]: frame I:1255 Avg QP:15.22 size: 53274
x264 [info]: frame P:27479 Avg QP:17.63 size: 21434
x264 [info]: frame B:104525 Avg QP:19.76 size: 6098
x264 [info]: consecutive B-frames: 1.8% 2.1% 7.4% 14.3% 12.0% 59.5% 1.7% 0.6% 0.2% 0.1% 0.2%
x264 [info]: mb I I16..4: 19.5% 0.0% 80.5%
x264 [info]: mb P I16..4: 27.0% 0.0% 0.0% P16..4: 66.8% 0.0% 0.0% 0.0% 0.0% skip: 6.2%
x264 [info]: mb B I16..4: 3.9% 0.0% 0.0% B16..8: 33.7% 0.0% 0.0% direct:21.6% skip:40.8% L0:24.4% L1:42.5% BI:33.0%
x264 [info]: final ratefactor: 17.92
x264 [info]: direct mvs spatial:100.0% temporal:0.0%
x264 [info]: coded y,uvDC,uvAC intra: 74.3% 64.2% 32.0% inter: 27.7% 20.9% 1.2%
x264 [info]: i16 v,h,dc,p: 32% 19% 35% 14%
x264 [info]: i4 v,h,dc,ddl,ddr,vr,hd,vl,hu: 21% 19% 18% 4% 10% 7% 7% 7% 9%
x264 [info]: i8c dc,h,v,p: 53% 18% 23% 6%
x264 [info]: Weighted P-Frames: Y:4.0% UV:2.2%
x264 [info]: kb/s:1861.46
x264 [total]: encoded 133259 frames, 50.40 fps, 1861.46 kb/s
...last pass...
x264.exe: --pass 2 --bitrate 1855 --preset veryslow --tune film --level 4.1 --ref 10 --aq-strength 0.9 --deblock -1:0 --bframes 10 --psy-rd 0.99:0.14 --qcomp 0.65 --subme 11 --rc-lookahead 80 --keyint 210 --ipratio 1.25 --pbratio 1.17 --colorprim bt470bg --transfer bt470bg --colormatrix bt470bg --sar 1:1 --stats "H:\TEMP\1908.log" --output "H:\TEMP\1908.264" "H:\TEMP\1908.avs"
avs [info]: 720x540p 1:1 @ 24000/1001 fps (cfr)
x264 [info]: using SAR=1/1
x264 [info]: using cpu capabilities: MMX2 SSE2Fast SSEMisalign LZCNT
x264 [info]: profile High, level 4.1
x264 [info]: frame I:1255 Avg QP:16.92 size: 50504
x264 [info]: frame P:27479 Avg QP:19.15 size: 20887
x264 [info]: frame B:104525 Avg QP:22.17 size: 6232
x264 [info]: consecutive B-frames: 1.8% 2.1% 7.4% 14.3% 12.0% 59.5% 1.7% 0.6% 0.2% 0.1% 0.2%
x264 [info]: mb I I16..4: 4.9% 80.7% 14.4%
x264 [info]: mb P I16..4: 1.1% 14.9% 1.5% P16..4: 29.5% 33.9% 10.8% 1.8% 0.2% skip: 6.4%
x264 [info]: mb B I16..4: 0.1% 1.6% 0.1% B16..8: 34.6% 17.8% 2.4% direct: 6.3% skip:37.1% L0:33.3% L1:49.9% BI:16.8%
x264 [info]: 8x8 transform intra:85.3% inter:61.1%
x264 [info]: direct mvs spatial:98.4% temporal:1.6%
x264 [info]: coded y,uvDC,uvAC intra: 91.6% 80.0% 50.5% inter: 25.7% 19.3% 2.1%
x264 [info]: i16 v,h,dc,p: 31% 23% 6% 40%
x264 [info]: i8 v,h,dc,ddl,ddr,vr,hd,vl,hu: 10% 8% 7% 10% 13% 14% 13% 13% 14%
x264 [info]: i4 v,h,dc,ddl,ddr,vr,hd,vl,hu: 11% 15% 6% 8% 13% 13% 12% 11% 12%
x264 [info]: i8c dc,h,v,p: 35% 25% 21% 19%
x264 [info]: Weighted P-Frames: Y:4.0% UV:2.2%
x264 [info]: ref P L0: 47.4% 10.7% 19.5% 5.6% 5.0% 3.3% 3.3% 1.6% 1.7% 1.6% 0.2% 0.0%
x264 [info]: ref B L0: 85.2% 8.9% 2.5% 1.1% 0.8% 0.6% 0.5% 0.2% 0.1%
x264 [info]: ref B L1: 95.6% 4.4%
x264 [info]: kb/s:1854.96
x264 [total]: encoded 133259 frames, 7.61 fps, 1854.96 kb/s
MUXING
------------------------------
Video file: H:\TEMP\1908.264
Audio file: H:\TEMP\VTS_01_1_003.index\VTS_01_1_003 T80 2_0ch 192Kbps DELAY 0ms.ac3
Muxing to: H:\1111\COLONY\VTS_01_1_003.mkv
mkvmerge.exe: -o "H:\1111\COLONY\VTS_01_1_003.mkv" --engage no_cue_duration --engage no_cue_relative_position --default-duration 0:23.976fps -d 0 -A -S "H:\TEMP\1908.264" -a 0 --sync 0:0 -D -S --no-chapters "H:\TEMP\VTS_01_1_003.index\VTS_01_1_003 T80 2_0ch 192Kbps DELAY 0ms.ac3" --output-charset UTF-8
TIME
------------------------------
Общее время кодирования: 5 hour 37 min 19 sec
Файл получился на: 1357.38 mb

MediaInfo

Общее
Уникальный идентификатор : 243850459837192846433738493842963207765 (0xB773E3E7C58AA6E29A0CC1C0A7869655)
Полное имя : N:\BD-DISC\The Colony aka The Advanced Guard 1998.x264.DVDRip.2xRus.kosmoaelita.mkv
Формат : Matroska
Версия формата : Version 4 / Version 2
Размер файла : 1,58 Гбайт
Продолжительность : 1 ч. 32 м.
Общий поток : 2437 Кбит/сек
Название фильма : Колония / The Advanced Guard / The Colony / 1998 / rip from NTSC DVD5 by sasha20072007 (kosmoaelita) (2014-11-09), crf=17.92
Дата кодирования : UTC 2018-09-30 10:52:49
Программа кодирования : mkvmerge v6.6.0 ('The Edge Of The In Between') built on Dec 1 2013 17:55:00
Библиотека кодирования : libebml v1.3.0 + libmatroska v1.4.1
Attachments : POSTER THE COLONY.jpg / VTS_01_1_003.mkv.encoding.log
Видео
Идентификатор : 1
Формат : AVC
Формат/Информация : Advanced Video Codec
Профиль формата : High@L4.1
Параметр CABAC формата : Да
Параметр ReFrames формата : 10 кадров
Идентификатор кодека : V_MPEG4/ISO/AVC
Продолжительность : 1 ч. 32 м.
Битрейт : 1855 Кбит/сек
Ширина : 720 пикселей
Высота : 540 пикселей
Соотношение сторон : 4:3
Режим частоты кадров : Постоянный
Частота кадров : 23,976 (24000/1001) кадра/сек
Цветовое пространство : YUV
Субдискретизация насыщенности : 4:2:0
Битовая глубина : 8 бит
Тип развёртки : Прогрессивная
Бит/(Пиксели*Кадры) : 0.199
Размер потока : 1,17 Гбайт (74%)
Заголовок : http://kosmoaelita.com/viewtopic.php?t=1449
Библиотека кодирования : x264 core 130 r2273 b3065e6
Настройки программы : cabac=1 / ref=10 / deblock=1:-1:0 / analyse=0x3:0x133 / me=umh / subme=11 / psy=1 / psy_rd=0.99:0.14 / mixed_ref=1 / me_range=24 / chroma_me=1 / trellis=2 / 8x8dct=1 / cqm=0 / deadzone=21,11 / fast_pskip=1 / chroma_qp_offset=-3 / threads=6 / lookahead_threads=1 / sliced_threads=0 / nr=0 / decimate=1 / interlaced=0 / bluray_compat=0 / constrained_intra=0 / bframes=10 / b_pyramid=2 / b_adapt=2 / b_bias=0 / direct=3 / weightb=1 / open_gop=0 / weightp=2 / keyint=210 / keyint_min=21 / scenecut=40 / intra_refresh=0 / rc_lookahead=80 / rc=2pass / mbtree=1 / bitrate=1855 / ratetol=1.0 / qcomp=0.65 / qpmin=0 / qpmax=69 / qpstep=4 / cplxblur=20.0 / qblur=0.5 / ip_ratio=1.25 / aq=1:0.90
Default : Да
Forced : Нет
Цветовой диапазон : Limited
Основные цвета : BT.601 PAL
Характеристики трансфера : BT.470 System B, BT.470 System G
Коэффициенты матрицы : BT.601
Statistics Tags Issue : mkvmerge v7.2.0 ('On Every Street') 32bit built on Sep 13 2014 15:42:11 2014-11-09 17:35:30 / mkvmerge v6.6.0 ('The Edge Of The In Between') built on Dec 1 2013 17:55:00 2018-09-30 10:52:49
FromStats_BitRate : 1854956
FromStats_Duration : 01:32:38.011000000
FromStats_FrameCount : 133259
FromStats_StreamSize : 1288733787
Аудио #1
Идентификатор : 2
Формат : AC-3
Формат/Информация : Audio Coding 3
Расширение режима : CM (complete main)
Параметр Endianness формата : Big
Идентификатор кодека : A_AC3
Продолжительность : 1 ч. 32 м.
Вид битрейта : Постоянный
Битрейт : 192 Кбит/сек
Каналы : 2 канала
Расположение каналов : Front: L R
Частота : 48,0 КГц
Частота кадров : 31,250 кадров/сек (1536 spf)
Метод сжатия : С потерями
Размер потока : 127 Мбайт (8%)
Заголовок : Русский ПМ (ТВ-3)
Язык : Russian
Default : Да
Forced : Да
Аудио #2
Идентификатор : 3
Формат : AC-3
Формат/Информация : Audio Coding 3
Расширение режима : CM (complete main)
Параметр Endianness формата : Big
Идентификатор кодека : A_AC3
Продолжительность : 1 ч. 32 м.
Вид битрейта : Постоянный
Битрейт : 192 Кбит/сек
Каналы : 2 канала
Расположение каналов : Front: L R
Частота : 48,0 КГц
Частота кадров : 31,250 кадров/сек (1536 spf)
Метод сжатия : С потерями
Размер потока : 127 Мбайт (8%)
Заголовок : Русский ПД (студия Ракурс по заказу Екатеринбург Арт) с VHS
Язык : Russian
Default : Нет
Forced : Нет
Аудио #3
Идентификатор : 4
Формат : AC-3
Формат/Информация : Audio Coding 3
Расширение режима : CM (complete main)
Параметр Endianness формата : Big
Идентификатор кодека : A_AC3
Продолжительность : 1 ч. 32 м.
Вид битрейта : Постоянный
Битрейт : 192 Кбит/сек
Каналы : 2 канала
Расположение каналов : Front: L R
Частота : 48,0 КГц
Частота кадров : 31,250 кадров/сек (1536 spf)
Метод сжатия : С потерями
Размер потока : 127 Мбайт (8%)
Язык : English
Default : Нет
Forced : Нет
Statistics Tags Issue : mkvmerge v7.2.0 ('On Every Street') 32bit built on Sep 13 2014 15:42:11 2014-11-09 17:35:30 / mkvmerge v6.6.0 ('The Edge Of The In Between') built on Dec 1 2013 17:55:00 2018-09-30 10:52:49
FromStats_BitRate : 192000
FromStats_Duration : 01:32:38.016000000
FromStats_FrameCount : 173688
FromStats_StreamSize : 133392384
Текст #1
Идентификатор : 5
Формат : UTF-8
Идентификатор кодека : S_TEXT/UTF8
Идентификатор кодека/Информация : UTF-8 Plain Text
Язык : English
Default : Да
Forced : Нет
Текст #2
Идентификатор : 6
Формат : UTF-8
Идентификатор кодека : S_TEXT/UTF8
Идентификатор кодека/Информация : UTF-8 Plain Text
Язык : English
Default : Нет
Forced : Нет
Текст #3
Идентификатор : 7
Формат : VobSub
Режим смешивания : zlib
Идентификатор кодека : S_VOBSUB
Идентификатор кодека/Информация : Picture based subtitle format used on DVDs
Язык : French
Default : Нет
Forced : Нет
Текст #4
Идентификатор : 8
Формат : VobSub
Режим смешивания : zlib
Идентификатор кодека : S_VOBSUB
Идентификатор кодека/Информация : Picture based subtitle format used on DVDs
Язык : Spanish
Default : Нет
Forced : Нет
Меню
00:04:09.249 : en:00:04:09.249
00:08:44.624 : en:00:08:44.624
00:12:00.553 : en:00:12:00.553
00:16:02.695 : en:00:16:02.695
00:20:36.034 : en:00:20:36.034
00:23:48.194 : en:00:23:48.194
00:27:53.171 : en:00:27:53.171
00:30:35.867 : en:00:30:35.867
00:35:16.682 : en:00:35:16.682
00:38:47.859 : en:00:38:47.859
00:42:38.556 : en:00:42:38.556
00:47:28.546 : en:00:47:28.546
00:50:46.110 : en:00:50:46.110
00:54:48.051 : en:00:54:48.051
00:57:17.501 : en:00:57:17.501
01:00:43.740 : en:01:00:43.740
01:05:35.665 : en:01:05:35.665
01:09:12.148 : en:01:09:12.148
01:14:34.437 : en:01:14:34.437
01:17:43.826 : en:01:17:43.826
01:20:59.288 : en:01:20:59.288
01:25:44.606 : en:01:25:44.606
01:30:48.843 : en:01:30:48.843
01:32:38.053 : en:01:32:38.053

Скриншоты










Скринлист

Файл дополнительно залит на ОБЛАКО
 

Guest ®

Gender: Unknown

Post 08-Nov-2014 10:20 (after 17 seconds)

[Quote]

http://www.movie-blog.org/2014/10/23/das-komitee-19...-1080p-x264-arc/
 

admin

Gender: Male

Longevity: 7 years 7 months

Posts: 4811

Post 08-Nov-2014 18:35 (after 8 hours)

[Quote]

Промахался два часа - скачивал части по отдельности - там полная лажа. а не рип - сплошной строб, язык токо немецкий
Ты бы хоть проверял иногда, что предлагаешь. Или думаешь, у меня так много времени, тобы херней заниматься?

MediaInfo

Общее
Уникальный идентификатор : 201826749166646531187113276577584269713 (0x97D66B00BA04F20A8D73566E7A344991)
Полное имя : F:\Downloads\oy5lf3y31e9m4g3\Das.Komitee.1998.German.AC3.HDTV.1080p.x264-ARC\arc-dk1080p.mkv
Формат : Matroska
Версия формата : Version 4 / Version 2
Размер файла : 2,22 Гбайт
Продолжительность : 1 ч. 31 м.
Общий поток : 3491 Кбит/сек
Дата кодирования : UTC 2013-03-16 22:56:35
Программа кодирования : mkvmerge v6.1.0 ('Old Devil') built on Mar 2 2013 14:32:37
Библиотека кодирования : libebml v1.3.0 + libmatroska v1.4.0
Видео
Идентификатор : 1
Формат : AVC
Формат/Информация : Advanced Video Codec
Профиль формата : High@L4.1
Параметр CABAC формата : Да
Параметр ReFrames формата : 4 кадра
Идентификатор кодека : V_MPEG4/ISO/AVC
Продолжительность : 1 ч. 31 м.
Битрейт : 3037 Кбит/сек
Ширина : 1440 пикселей
Высота : 1080 пикселей
Соотношение сторон : 16:9
Режим частоты кадров : Постоянный
Частота кадров : 25,000 кадров/сек
Цветовое пространство : YUV
Субдискретизация насыщенности : 4:2:0
Битовая глубина : 8 бит
Тип развёртки : Прогрессивная
Бит/(Пиксели*Кадры) : 0.078
Размер потока : 1,93 Гбайт (87%)
Библиотека кодирования : x264 core 130 r2273 b3065e6
Настройки программы : cabac=1 / ref=4 / deblock=1:0:0 / analyse=0x3:0x113 / me=umh / subme=7 / psy=1 / psy_rd=1.00:0.00 / mixed_ref=1 / me_range=16 / chroma_me=1 / trellis=1 / 8x8dct=1 / cqm=0 / deadzone=21,11 / fast_pskip=0 / chroma_qp_offset=-2 / threads=12 / lookahead_threads=2 / sliced_threads=0 / nr=0 / decimate=1 / interlaced=0 / bluray_compat=0 / constrained_intra=0 / bframes=3 / b_pyramid=2 / b_adapt=1 / b_bias=0 / direct=1 / weightb=1 / open_gop=0 / weightp=2 / keyint=250 / keyint_min=25 / scenecut=40 / intra_refresh=0 / rc_lookahead=40 / rc=crf / mbtree=1 / crf=20.0 / qcomp=0.60 / qpmin=0 / qpmax=69 / qpstep=4 / ip_ratio=1.40 / aq=1:1.00
Default : Да
Forced : Нет
Аудио
Идентификатор : 2
Формат : AC-3
Формат/Информация : Audio Coding 3
Расширение режима : CM (complete main)
Параметр Endianness формата : Big
Идентификатор кодека : A_AC3
Продолжительность : 1 ч. 31 м.
Вид битрейта : Постоянный
Битрейт : 384 Кбит/сек
Каналы : 2 канала
Расположение каналов : Front: L R
Частота : 48,0 КГц
Битовая глубина : 16 бит
Метод сжатия : С потерями
Размер потока : 250 Мбайт (11%)
Default : Да
Forced : Нет
[Profile] [PM]

admin

Gender: Male

Longevity: 7 years 7 months

Posts: 4811

Post 09-Nov-2014 22:40 (after 1 day 4 hours)

[Quote]

Перезалито
[Profile] [PM]

Guest ®

Gender: Unknown

Post 10-Nov-2014 21:19 (after 22 hours)

[Quote]

Slavnus Spacedust и admin - спасибо!
Чёй-то не видел такой фильм.
 

Guest

Gender: Unknown

Longevity: 50 years

Post 30-Sep-2018 14:00 (after 3 years 10 months)

[Quote]

Добавлен перевод от Екатеринбург Арт
[Profile] [PM]
Display posts:    
Reply to topic

Current time is: 04-Apr 07:58

All times are UTC + 3



You cannot post new topics in this forum
You cannot reply to topics in this forum
You cannot edit your posts in this forum
You cannot delete your posts in this forum
You cannot vote in polls in this forum
You cannot attach files in this forum
You cannot download files in this forum