Невероятное вторжение / Invasion Siniestra / The Incredible Invasion / Alien Terror (José Luis González de León, Jack Hill) [1968 - 71, США, Мексика, ужасы, фантастика, TVRip] ЛО (den904), СТ (kosmoaelita,Severnyj)

Reply to topic
 
Author Message

admin ®

Gender: Male

Longevity: 6 years 11 months

Posts: 4725

Location: Україна

Post 05-Nov-2014 23:08

[Quote]

Невероятное вторжение / Invasion Siniestra / The Incredible Invasion / Alien Terror
Релиз - kosmoaelita. com
Страна: США, Мексика, Azteca Films, Columbia Pictures Corporation
Жанр: ужасы, фантастика
Год выпуска: 1968-71
Продолжительность: 01:25:06
Перевод: ЛО den904 по субтитрам на слух с английского от Severnyj
Режиссер: José Luis González de León, Jack Hill
В ролях:
Boris Karloff ... Prof. John Mayer
Enrique Guzmán ... Dr. Paul Rosten
Christa Linder ... Laura
Maura Monti ... Dr. Isabel Reed
Yerye Beirute ... Thomas
Tere Valez ... Nancy
Griselda Mejía ... Prostitute
Sergio Kleiner ... Alien
Rosángela Balbó ... Martha - mayor's wife
Mariela Flores ... Deaf-mute victim
Tito Novaro ... Gen. Nord
Sergio Virel ... Villager
Nathanael León ... Villager (as Frankestein)
Victor Jordan
Julián de Meriche ... Visiting dignitary
Описание:
В конце 19 века профессор Мейер и его помощница Изабель создают необычную машину, испускающую лазерный луч. Во время испытания луч прожигает потолок их лаборатории и устремляется в открытое небо. Это привлекает внимание летающей тарелки инопланетян. Пришельцы решают, что лазерный луч представляет серьезную опасность для существования их расы и собираются уничтожить как смертоносную машину, так и всех тех, кто работал над ее созданием. Первой жертвой пришельцев становится маньяк-убийца, промышлявший в городе. Инопланетяне его зомбируют и заставляют проникнуть в лабораторию профессора Мейера. Там пришельцы пытаются установить контроль над разумом профессора, чтобы заставить его уничтожить лазерный излучатель. Начинается противостояние разумов, в котором профессор Мейер выходит победителем. Инопланетянам приходится удалиться ни с чем. Но, в конце концов, профессор сам понимает всю опасность, которую несет его изобретение, добровольно уничтожает машину и свою лабораторию…
Качество: TVRip
Формат: MKV
Видео: XviD, 1178 кбит/с, 528x400, 23.976 к/с
Аудио 1: Русский ЛО (den904) - на англ дорожку (AC3, 2 ch, 192 Кбит/с)
Аудио 2: Русский ЛО (den904) - на исп. дорожку (AC3, 2 ch, 192 Кбит/с)
Аудио 3: Испанский (AC3, 2 ch, 192 Кбит/с)
Аудио 4: Английский (AC3, 2 ch, 192 Кбит/с)
Субтитры : Русские (Severnyj)
Работа над релизом:
Релиз kosmoaelita.com
Испанский видеоряд найден в сети
Монтаж и синхронизация дорожек - kosmoaelita
Субтитровый перевод на слух с англ. по заказу kosmoaelita - Severnyj
Русская озвучка по заказу kosmoaelita - den904
Спонсор русской озвучки - Андрей Берг



Пример русских субтитров

Дополнительно

Also Known As (AKA)
Sinister Invasion
Brazil Invasão Sinistra
Germany (video title) Alien Terror
Germany (TV title) Invasion der Aliens
Italy Alien Terror
Mexico Invasión siniestra
USA Alien Terror
================================================
Для Украины: рип и оригинальный ДВД дополнительно залиты в файлохранилище
Для удаления,добавления и извлечения дорожек в mkv используйте бесплатную портативную mkvmerge GUI 7.1.0
Для присоединения потом дорожек к avi воспользуйтесь VirtualDubMod

Отзывы

MediaInfo

Общее
Уникальный идентификатор : 233492022462843539979270365104963383892 (0xAFA8ED833B143789A37B879BA24CF254)
Полное имя : H:\1111\Невероятное вторжение ас3 и вав\Invasion Siniestra aka Alien Terror 1968.XviD.TVRip.Rus.kosmoaelita.mkv
Формат : Matroska
Версия формата : Version 4 / Version 2
Размер файла : 1,17 Гбайт
Продолжительность : 1 ч. 25 м.
Общий поток : 1976 Кбит/сек
Название фильма : Invasion Siniestra / Alien Terror / 1968-71гг / Релиз kosmoaelita.com
Дата кодирования : UTC 2016-08-28 15:39:13
Программа кодирования : mkvmerge v6.6.0 ('The Edge Of The In Between') built on Dec 1 2013 17:55:00
Библиотека кодирования : libebml v1.3.0 + libmatroska v1.4.1
Attachments : Poster.jpg
Видео
Идентификатор : 1
Формат : MPEG-4 Visual
Профиль формата : Advanced Simple@L5
Параметр BVOP формата : 2
Параметр QPel формата : Нет
Параметр GMC формата : Без точки перехода
Параметр матрицы формата : Default (H.263)
Режим смешивания : Сжатый битовый поток
Идентификатор кодека : V_MS/VFW/FOURCC / XVID
Идентификатор кодека/Подсказка : XviD
Продолжительность : 1 ч. 25 м.
Битрейт : 1169 Кбит/сек
Ширина : 528 пикселей
Высота : 400 пикселей
Соотношение сторон : 4:3
Режим частоты кадров : Постоянный
Частота кадров : 23,976 (24000/1001) кадра/сек
Цветовое пространство : YUV
Субдискретизация насыщенности : 4:2:0
Битовая глубина : 8 бит
Тип развёртки : Прогрессивная
Метод сжатия : С потерями
Бит/(Пиксели*Кадры) : 0.231
Размер потока : 712 Мбайт (59%)
Заголовок : kosmoaelita
Библиотека кодирования : XviD 1.3.0.dev55
Default : Да
Forced : Нет
Аудио #1
Идентификатор : 2
Формат : AC-3
Формат/Информация : Audio Coding 3
Расширение режима : CM (complete main)
Параметр Endianness формата : Big
Идентификатор кодека : A_AC3
Продолжительность : 1 ч. 25 м.
Вид битрейта : Постоянный
Битрейт : 192 Кбит/сек
Каналы : 2 канала
Расположение каналов : Front: L R
Частота : 48,0 КГц
Частота кадров : 31,250 кадров/сек (1536 spf)
Метод сжатия : С потерями
Размер потока : 117 Мбайт (10%)
Заголовок : Русский ЛО (den904 для kosmoaelita.com) - on engl track - поддержка А.Берг
Язык : Russian
Default : Да
Forced : Нет
Аудио #2
Идентификатор : 3
Формат : AC-3
Формат/Информация : Audio Coding 3
Расширение режима : CM (complete main)
Параметр Endianness формата : Big
Идентификатор кодека : A_AC3
Продолжительность : 1 ч. 25 м.
Вид битрейта : Постоянный
Битрейт : 192 Кбит/сек
Каналы : 2 канала
Расположение каналов : Front: L R
Частота : 48,0 КГц
Частота кадров : 31,250 кадров/сек (1536 spf)
Метод сжатия : С потерями
Размер потока : 117 Мбайт (10%)
Заголовок : Русский ЛО (den904 для kosmoaelita.com) - on spanish track - поддержка А.Берг
Язык : Russian
Default : Нет
Forced : Нет
Аудио #3
Идентификатор : 4
Формат : AC-3
Формат/Информация : Audio Coding 3
Расширение режима : CM (complete main)
Параметр Endianness формата : Big
Идентификатор кодека : A_AC3
Продолжительность : 1 ч. 25 м.
Вид битрейта : Постоянный
Битрейт : 192 Кбит/сек
Каналы : 2 канала
Расположение каналов : Front: L R
Частота : 48,0 КГц
Частота кадров : 31,250 кадров/сек (1536 spf)
Метод сжатия : С потерями
Размер потока : 117 Мбайт (10%)
Язык : English
Default : Нет
Forced : Нет
Аудио #4
Идентификатор : 5
Формат : AC-3
Формат/Информация : Audio Coding 3
Расширение режима : CM (complete main)
Параметр Endianness формата : Big
Идентификатор кодека : A_AC3
Продолжительность : 1 ч. 25 м.
Вид битрейта : Постоянный
Битрейт : 192 Кбит/сек
Каналы : 2 канала
Расположение каналов : Front: L R
Частота : 48,0 КГц
Частота кадров : 31,250 кадров/сек (1536 spf)
Метод сжатия : С потерями
Размер потока : 117 Мбайт (10%)
Язык : Spanish
Default : Нет
Forced : Нет
Текст #1
Идентификатор : 6
Формат : VobSub
Режим смешивания : zlib
Идентификатор кодека : S_VOBSUB
Идентификатор кодека/Информация : Picture based subtitle format used on DVDs
Заголовок : Русский (kosmoaelita,Severnyj) VobSub - на слух с англ
Язык : Russian
Default : Да
Forced : Нет
Текст #2
Идентификатор : 7
Формат : VobSub
Режим смешивания : zlib
Идентификатор кодека : S_VOBSUB
Идентификатор кодека/Информация : Picture based subtitle format used on DVDs
Заголовок : Русский (kosmoaelita,Severnyj) VobSub - на слух с англ
Язык : Russian
Default : Нет
Forced : Нет
Текст #3
Идентификатор : 8
Формат : UTF-8
Идентификатор кодека : S_TEXT/UTF8
Идентификатор кодека/Информация : UTF-8 Plain Text
Заголовок : Русский (kosmoaelita,Severnyj) srt - на слух с англ
Язык : Russian
Default : Нет
Forced : Нет

Пример субтитров

1
00:00:12,974 --> 00:00:15,074
Filmica Vergara представляет
2
00:00:16,631 --> 00:00:24,501
Борис Карлофф, Энрике
Газмен, Криста Линдер.
3
00:00:28,948 --> 00:00:31,048
"Невероятное вторжение"
(Invasion Siniestra aka Alien Terror 1968г)
4
00:00:45,897 --> 00:00:50,000
Релиз
www.kosmoaelita.com
5
00:01:55,703 --> 00:01:58,263
Режиссёр - Хуан Ибанез
6
00:02:01,003 --> 00:02:04,642
Юденбург, 1890
7
00:03:56,266 --> 00:03:58,086
Что мы наделали?
8
00:03:58,317 --> 00:04:03,180
Извините, профессор.
Моя неуклюжесть непростительна.
--------------------------------
486
01:23:41,127 --> 01:23:45,845
...подготовлена и использует его
для более конструктивных целей.
487
01:23:58,593 --> 01:24:02,093
Угроза, представлявшая опасность для
нашей галактики - исчезла.
488
01:24:02,366 --> 01:24:06,656
Наши планеты могут жить спокойно.
Но если ещё кто-нибудь...
489
01:24:06,657 --> 01:24:11,398
...попытается прибегнуть к энергии
атома, нам придётся вернуться.
490
01:24:26,657 --> 01:24:31,398
Перевод на слух с англ. Severnyj
Ред. sasha20072007
ноябрь, 2014 года

Скриншоты












Скринлист



Last edited by admin on 2016-08-28 18:53; edited 4 times in total
[Profile] [PM]

Трамвай-фильм

Gender: Male

Longevity: 5 years

Posts: 1493

Location: Россия

Post 25-Aug-2016 19:37 (after 1 year 9 months)

[Quote]

И фильм смотреть не надо, все пересказали
[Profile] [PM]

admin ®

Gender: Male

Longevity: 6 years 11 months

Posts: 4725

Location: Україна

Post 28-Aug-2016 16:03 (after 2 days 20 hours)

[Quote]

Добавлена русская озвучка от den904
[Profile] [PM]
Display posts:    
Reply to topic

Current time is: 20-Aug 08:51

All times are UTC + 3



You cannot post new topics in this forum
You cannot reply to topics in this forum
You cannot edit your posts in this forum
You cannot delete your posts in this forum
You cannot vote in polls in this forum
You cannot attach files in this forum
You cannot download files in this forum