День, когда Марс напал на Землю / The Day Mars Invaded Earth [WideScreen] (Маури Декстер) [1963 г., фантастика, триллер,DVDRip-AVC] ЛО (den904). СТ (valera123)

Reply to topic
 
Author Message

admin ®

Gender: Male

Longevity: 8 years 1 month

Posts: 4794

Post 04-Nov-2014 23:33

[Quote]

День, когда Марс напал на Землю (Широкоэкранная версия) / The Day Mars Invaded Earth
Год выпуска: 1963
Страна: США
Жанр: фантастика, триллер
Продолжительность: 01:09:42
Перевод: ЛО (den904) по субтитрам от valera123
Режиссер: Маури Декстер
В ролях: Кент Тейлор, Мари Уиндсор, Уильям Мимс, Бетти Билл, Лоуелл Браун, Грегг Шэнк, Генриетта Мур, Трой Мелтон, Джордж Райли,
Барбара Билл
Описание: После того, как марсианский зонд прекращает свою связь с Землей, ученый Дэвид Филдинг решает уделить немного внимания своей семье, очень недовольной тем, что он все время уделяет своей работе. Дэвид, его жена Клэр и их двое детей отправляются праздновать Рождество в огромный заброшенный особняк. Неожиданно они обнаруживают обитающих там своих точных двойников…
Качество: DVDRip-AVC
Формат: MKV
Видео: x264, 1605 кбит/с, 718x384@850x384, 23.976 к/с
Аудио 1: Русский ЛО (den904) (AC3, 2 ch, 192 Кбит/с)
Аудио 2: Английский (AC3, 2 ch, 192 Кбит/с)
Субтитры : Русские (valera123)
Работа над релизом:
Видеоряд найден на CG
Субтитровый перевод на русский язык появился благодаря - sasha20072007, DEICIDE, e-ball
Русская озвучка по заказу kosmoaelita - den904
Сравнение версий



Пример русской озвучки

Дополнительно

слоган «Strange Invisible Astro-Energy Unleashed Leaves Mankind A Human Shell As It Destroys His Body And Brain!»
Also Known As (AKA)
O Dia Em Que Marte Invadiu a Terra Brazil (TV title)
O Dia em que Marte Invadiu a Terra Brazil (imdb display title)

Рецензия

После того, как марсианский зонд прекращает свою связь с Землей, ученый Дэвид Филдинг решает уделить немного внимания своей семье, очень недовольной тем, что он все время уделяет своей работе. Дэвид, его жена Клэр и их двое детей отправляются праздновать Рождество в огромный заброшенный особняк. Неожиданно они обнаруживают обитающих там своих точных двойников…
Оригинальная и свежая идея при очень скромной постановке. Гримом занимался Гарри Росс, работавший над фильмами «Безумный монстр» (1942), «Остров исчезнувших людей» (1942), «Гитлер: жив или мертв» (1942), «Мертвецы идут» (1943), «Леди в полночь» (1948), «Неизведанный остров» (1948), «Летающая тарелка» (1950), «Два затерянных мира» (1951), «Затерянный континент» (1951), «Месса потерянных женщин» (1953), «Вокруг света за 80 дней» (1956), «Змея» (1957), «Сага о женщинах-викингах и их путешествии к водам великого морского змея» (1957). Оценка 2, 5 балла.

MediaInfo

Общее
Уникальный идентификатор : 201956355876071039449021086671633321601 (0x97EF611B6271B146898C43851BF70E81)
Полное имя : N:\BD-DISC\The Da Mars Invaded Earth (WideScreen) 1963.x264.DVDRip.AVC.Rus.kosmoaelita.mkv
Формат : Matroska
Версия формата : Version 4 / Version 2
Размер файла : 1013 Мбайт
Продолжительность : 1 ч. 9 м.
Общий поток : 2030 Кбит/сек
Название фильма : The Day Mars Invaded Earth (WideScreen) 1963 / kosmoaelita
Дата кодирования : UTC 2018-08-31 20:38:42
Программа кодирования : mkvmerge v6.6.0 ('The Edge Of The In Between') built on Dec 1 2013 17:55:00
Библиотека кодирования : libebml v1.3.0 + libmatroska v1.4.1
Attachments : POSTER c.jpg
Видео
Идентификатор : 1
Формат : AVC
Формат/Информация : Advanced Video Codec
Профиль формата : High@L4.1
Параметр CABAC формата : Да
Параметр ReFrames формата : 16 кадров
Идентификатор кодека : V_MPEG4/ISO/AVC
Продолжительность : 1 ч. 9 м.
Битрейт : 1605 Кбит/сек
Ширина : 718 пикселей
Высота : 384 пикселя
Соотношение сторон : 2,2:1
Соотношение сторон в оригинале : 2,2:1
Режим частоты кадров : Постоянный
Частота кадров : 23,976 (24000/1001) кадра/сек
Цветовое пространство : YUV
Субдискретизация насыщенности : 4:2:0
Битовая глубина : 8 бит
Тип развёртки : Прогрессивная
Бит/(Пиксели*Кадры) : 0.243
Размер потока : 801 Мбайт (79%)
Заголовок : http://kosmoaelita.com/viewtopic.php?t=1443
Библиотека кодирования : x264 core 142 r2479 dd79a61
Настройки программы : cabac=1 / ref=16 / deblock=1:-3:-3 / analyse=0x3:0x133 / me=umh / subme=9 / psy=1 / psy_rd=1.00:0.00 / mixed_ref=1 / me_range=24 / chroma_me=1 / trellis=2 / 8x8dct=1 / cqm=0 / deadzone=21,11 / fast_pskip=0 / chroma_qp_offset=-2 / threads=2 / lookahead_threads=1 / sliced_threads=0 / nr=0 / decimate=0 / interlaced=0 / bluray_compat=0 / constrained_intra=0 / bframes=12 / b_pyramid=2 / b_adapt=2 / b_bias=0 / direct=3 / weightb=1 / open_gop=0 / weightp=2 / keyint=240 / keyint_min=24 / scenecut=40 / intra_refresh=0 / rc_lookahead=60 / rc=crf / mbtree=0 / crf=17.0 / qcomp=0.60 / qpmin=0 / qpmax=69 / qpstep=4 / vbv_maxrate=62500 / vbv_bufsize=78125 / crf_max=0.0 / nal_hrd=none / filler=0 / ip_ratio=1.30 / pb_ratio=1.20 / aq=1:1.00
Default : Да
Forced : Нет
Цветовой диапазон : Limited
Основные цвета : BT.601 NTSC
Характеристики трансфера : BT.709
Коэффициенты матрицы : BT.601
Statistics Tags Issue : mkvmerge v8.3.0 ('Over the Horizon') 64bit 2017-03-28 16:34:45 / mkvmerge v6.6.0 ('The Edge Of The In Between') built on Dec 1 2013 17:55:00 2018-08-31 20:38:42
FromStats_BitRate : 1641445
FromStats_Duration : 01:09:47.892000000
FromStats_FrameCount : 100409
FromStats_StreamSize : 859274765
Аудио #1
Идентификатор : 2
Формат : AC-3
Формат/Информация : Audio Coding 3
Расширение режима : CM (complete main)
Параметр Endianness формата : Big
Идентификатор кодека : A_AC3
Продолжительность : 1 ч. 9 м.
Вид битрейта : Постоянный
Битрейт : 192 Кбит/сек
Каналы : 2 канала
Расположение каналов : Front: L R
Частота : 48,0 КГц
Частота кадров : 31,250 кадров/сек (1536 spf)
Метод сжатия : С потерями
Задержка видео : -83 мс.
Размер потока : 95,9 Мбайт (9%)
Заголовок : Русский ЛО (den904 для kosmoaelita.com)
Язык : Russian
Default : Да
Forced : Нет
Аудио #2
Идентификатор : 3
Формат : AC-3
Формат/Информация : Audio Coding 3
Расширение режима : CM (complete main)
Параметр Endianness формата : Big
Идентификатор кодека : A_AC3
Продолжительность : 1 ч. 9 м.
Вид битрейта : Постоянный
Битрейт : 192 Кбит/сек
Каналы : 2 канала
Расположение каналов : Front: L R
Частота : 48,0 КГц
Частота кадров : 31,250 кадров/сек (1536 spf)
Метод сжатия : С потерями
Размер потока : 95,9 Мбайт (9%)
Язык : English
Default : Нет
Forced : Нет
Statistics Tags Issue : mkvmerge v8.3.0 ('Over the Horizon') 64bit 2017-03-28 16:34:45 / mkvmerge v6.6.0 ('The Edge Of The In Between') built on Dec 1 2013 17:55:00 2018-08-31 20:38:42
FromStats_BitRate : 192000
FromStats_Duration : 01:09:47.904000000
FromStats_FrameCount : 130872
FromStats_StreamSize : 100509696
Текст #1
Идентификатор : 4
Формат : UTF-8
Идентификатор кодека : S_TEXT/UTF8
Идентификатор кодека/Информация : UTF-8 Plain Text
Заголовок : Русский (valera123) srt
Язык : Russian
Default : Да
Forced : Нет
Текст #2
Идентификатор : 5
Формат : VobSub
Режим смешивания : zlib
Идентификатор кодека : S_VOBSUB
Идентификатор кодека/Информация : Picture based subtitle format used on DVDs
Заголовок : Русский (valera123) VobSub
Язык : Russian
Default : Нет
Forced : Нет
Меню
00:00:00.000 : :Chapter 1
00:10:00.808 : :Chapter 2
00:20:01.408 : :Chapter 3
00:30:02.175 : :Chapter 4
00:40:02.858 : :Chapter 5
00:50:03.375 : :Chapter 6
01:00:04.100 : :Chapter 7

Пример субтитров

1
00:00:06,999 --> 00:00:11,099
ДЕНЬ, КОГДА МАРС
ВТОРГСЯ НА ЗЕМЛЮ
2
00:00:12,800 --> 00:00:17,000
в ролях: Кент ТЭЙЛОР, Мари ВИНДЗОР,
Уилльям МИМС
3
00:00:21,501 --> 00:00:29,501
Бэтти БИЛЛ, Лауэл БРАУН, Грэгг ШЭНК,
Генриетта МУР, Трой МЕЛТОН, Джордж РАЙЛИ
4
00:01:13,902 --> 00:01:16,902
сценарий Гарри СПЭЛДИНГА
5
00:01:21,803 --> 00:01:27,103
продюсер и режиссер
Мори ДЕКСТЕР
6
00:02:22,700 --> 00:02:25,713
Космический челнок "Маринер"
был запущен...
7
00:02:27,975 --> 00:02:31,846
Космический челнок "Маринер"
был запущен в межзвездное пространство...
8
00:02:31,993 --> 00:02:36,655
...при помощи ракеты "Атлас-Кентавр"
в качестве подъемной силы.
9
00:02:37,530 --> 00:02:41,235
10-го явнаря, в 6.15 утра по
местному времени...
10
00:02:43,723 --> 00:02:48,268
...капсула достигла
поверхности планеты Марс.
11
00:02:49,227 --> 00:02:53,133
Капсулой управляло...
автоматизированное оборудование...
12
00:02:54,663 --> 00:02:58,994
...запрограмированное на исследование
поверхности планеты в радиусе 334 метров.
13
00:03:02,478 --> 00:03:04,935
Робот собрал образцы почвы...
14
00:03:05,028 --> 00:03:09,546
...и отправил анализы в земную лабораторию.
------------------------
662
01:05:15,509 --> 01:05:16,970
Что ты тут делаешь?
663
01:07:40,882 --> 01:07:42,245
Как жарко!
664
01:08:13,770 --> 01:08:15,138
Все в машину!
665
01:08:37,990 --> 01:08:39,211
Ну, уезжаем!
666
01:09:32,812 --> 01:09:35,412
КОНЕЦ

Скриншоты
















Скринлист

cd Рип дополнительно залит на mail.ru cd2
[Profile] [PM]

admin ®

Gender: Male

Longevity: 8 years 1 month

Posts: 4794

Post 04-Nov-2014 23:35 (after 1 minute)

[Quote]

Широкоформатная версия
Сравнение версий

[Profile] [PM]

Guest

Gender: Unknown

Longevity: 50 years

Post 01-Sep-2018 00:02 (after 3 years 9 months)

[Quote]

Замена на DVDRip
DVDRip vs. TVRip

[Profile] [PM]
Display posts:    
Reply to topic

Current time is: 21-Oct 08:25

All times are UTC + 3



You cannot post new topics in this forum
You cannot reply to topics in this forum
You cannot edit your posts in this forum
You cannot delete your posts in this forum
You cannot vote in polls in this forum
You cannot attach files in this forum
You cannot download files in this forum