Свет Звезды / Звездный свет / Starlight (Джонатан Кэй / Jonathon Kay) [1996, США, фантастика, VHSRip] ПД (Викинг-видео)

Reply to topic
 
Author Message

admin ®

Gender: Male

Longevity: 7 years 5 months

Posts: 4813

Post 19-Oct-2014 18:42

[Quote]

Свет Звезды / Звездный свет / Starlight
Страна: США, British Columbia Film Commission, Starlight Films, Téléfilm Canada, FUND
Жанр: фантастика
Год выпуска: 1996
Продолжительность: 01:40:27
Перевод: ПД (Викинг-видео с VHS)
Режиссер: Джонатан Кэй / Jonathon Kay
В ролях:
Rae Dawn Chong ... Arianna
Billy Wirth ... Kieran MacArthur
Willie Nelson ... Grampa Lium
Jim Byrnes ... Rod MacArthur
Alex Diakun ... Pallas
Deborah Wakeham ... Cailie
Sarah Smith ... Young Cailie
Brent Fidler ... Morrisson
Rest of cast listed alphabetically:
Gabrielle Miller ... Deborah
Deanna Milligan ... Marilyn
Описание: Пришелец-ученый путешествует по Земле, чтобы найти и вернуть людей, которые имеют ключевое значение для выживания нашей планеты.
Качество: VHSRip
Формат: MKV
Видео: x264, 1872 кбит/с, 704x532, 23.976 к/с
Аудио 1: Русский ПД (Викинг-видео) (AC3, 2 ch, 192 Кбит/с)
Аудио 2: Английский (AC3, 2 ch, 192 Кбит/с)
Работа над релизом:
Видеоряд найден в сети.
За русский звук спасибо - Sp1end1d
Синхронизация русской дорожки - kosmoaelita
Длинные звуковые фрагменты заменены более качеств. с англ. дорожки
Мужские роли озвучивает Игорь Тарадайкин.
Сравнение: kosmoaelita.com vs. rutracker



Пример русской озвучки

Дополнительно

MPAA: R - Лицам до 17 лет обязательно присутствие взрослого.
Also Known As (AKA) Canada (French title) Lumière d'étoile
Greece (video title) Soste ton planiti Gi!
================================================
Для Украины: рип и оригинальный ДВД дополнительно залиты в файлохранилище
Для удаления,добавления и извлечения дорожек в mkv используйте бесплатную портативную mkvmerge GUI 7.1.0
Для присоединения потом дорожек к avi воспользуйтесь VirtualDubMod

Отзывы

MediaInfo

Общее
Уникальный идентификатор : 247190988966970168826417616917659577897 (0xB9F740B51A7717048C49D60668F2EE29)
Полное имя : F:\Starlight 1996.VHSRip.kosmoaelita.mkv
Формат : Matroska
Версия формата : Version 4 / Version 2
Размер файла : 1,61 Гбайт
Продолжительность : 1 ч. 40 м.
Общий поток : 2301 Кбит/сек
Название фильма : Свет Звезды / Starlight / 1996 VHSRip / kosmoaelita
Дата кодирования : UTC 2014-10-19 20:54:36
Программа кодирования : mkvmerge v6.6.0 ('The Edge Of The In Between') built on Dec 1 2013 17:55:00
Библиотека кодирования : libebml v1.3.0 + libmatroska v1.4.1
Attachment : Yes
Видео
Идентификатор : 1
Формат : AVC
Формат/Информация : Advanced Video Codec
Профиль формата : High@L4.1
Параметр CABAC формата : Да
Параметр ReFrames формата : 10 кадров
Идентификатор кодека : V_MPEG4/ISO/AVC
Продолжительность : 1 ч. 40 м.
Битрейт : 1872 Кбит/сек
Ширина : 704 пикселя
Высота : 532 пикселя
Соотношение сторон : 4:3
Режим частоты кадров : Постоянный
Частота кадров : 23,976 кадра/сек
Цветовое пространство : YUV
Субдискретизация насыщенности : 4:2:0
Битовая глубина : 8 бит
Тип развёртки : Прогрессивная
Бит/(Пиксели*Кадры) : 0.208
Размер потока : 1,31 Гбайт (81%)
Заголовок : kosmoaelita
Библиотека кодирования : x264 core 130 r2273 b3065e6
Настройки программы : cabac=1 / ref=10 / deblock=1:0:0 / analyse=0x3:0x133 / me=umh / subme=7 / psy=1 / psy_rd=0.99:0.14 / mixed_ref=1 / me_range=24 / chroma_me=1 / trellis=2 / 8x8dct=1 / cqm=0 / deadzone=21,11 / fast_pskip=1 / chroma_qp_offset=-3 / threads=6 / lookahead_threads=3 / sliced_threads=0 / nr=0 / decimate=1 / interlaced=0 / bluray_compat=0 / constrained_intra=0 / bframes=10 / b_pyramid=2 / b_adapt=2 / b_bias=0 / direct=3 / weightb=1 / open_gop=0 / weightp=2 / keyint=210 / keyint_min=21 / scenecut=40 / intra_refresh=0 / rc_lookahead=80 / rc=crf / mbtree=1 / crf=22.5 / qcomp=0.65 / qpmin=0 / qpmax=69 / qpstep=4 / ip_ratio=1.25 / aq=1:0.90
Default : Да
Forced : Нет
Аудио #1
Идентификатор : 2
Формат : AC-3
Формат/Информация : Audio Coding 3
Расширение режима : CM (complete main)
Параметр Endianness формата : Big
Идентификатор кодека : A_AC3
Продолжительность : 1 ч. 40 м.
Вид битрейта : Постоянный
Битрейт : 192 Кбит/сек
Каналы : 2 канала
Расположение каналов : Front: L R
Частота : 48,0 КГц
Битовая глубина : 16 бит
Метод сжатия : С потерями
Размер потока : 138 Мбайт (8%)
Заголовок : Русский ПД (Викинг-видео с VHS)
Язык : Russian
Default : Да
Forced : Нет
Аудио #2
Идентификатор : 3
Формат : AC-3
Формат/Информация : Audio Coding 3
Расширение режима : CM (complete main)
Параметр Endianness формата : Big
Идентификатор кодека : A_AC3
Продолжительность : 1 ч. 40 м.
Вид битрейта : Постоянный
Битрейт : 192 Кбит/сек
Каналы : 2 канала
Расположение каналов : Front: L R
Частота : 48,0 КГц
Битовая глубина : 16 бит
Метод сжатия : С потерями
Размер потока : 138 Мбайт (8%)
Язык : English
Default : Нет
Forced : Нет

Скриншоты










Скринлист

cd Рип дополнительно залит на mail.ru cd2


Last edited by admin on 2014-10-20 00:26; edited 5 times in total
[Profile] [PM]

admin ®

Gender: Male

Longevity: 7 years 5 months

Posts: 4813

Post 19-Oct-2014 19:25 (after 43 minutes)

[Quote]

Сравнение: kosmoaelita.com vs. rutracker
[Profile] [PM]
Display posts:    
Reply to topic

Current time is: 26-Feb 13:17

All times are UTC + 3



You cannot post new topics in this forum
You cannot reply to topics in this forum
You cannot edit your posts in this forum
You cannot delete your posts in this forum
You cannot vote in polls in this forum
You cannot attach files in this forum
You cannot download files in this forum