Улица космонавтов (Марианна Рошаль) [1963, СССР, Киргизфильм, Детский, комедия, VHSRip] CCCР

Reply to topic
 
Author Message

admin ®

Gender: Male

Longevity: 7 years 11 months

Posts: 4797

Post 09-Oct-2014 10:27

[Quote]

Улица космонавтов
Страна: СССР, Киргизфильм
Жанр: Детский, комедия
Год выпуска: 1963
Продолжительность: 01:17:20
Перевод: Не требуется
Режиссер: Марианна Рошаль
В ролях: Володя Зеленин, Арстанбек Ирсалиев, И. Абдыкулов, Кумболот Досумбаев, Сагын Иманкулов, Султангазы Ирсалиев, Виктор Колпаков, Миша Котов, Р. Кулманбетова, Даркуль Куюкова, А. Кыдыкбаева, Толеш Океев, Бакы Омуралиев, Чоробек Осмонов, К. Рысмендиева, Анара Садыкова, Шамши Тюменбаев, К. Эсенов, Валериан Виноградов
Описание: Остроумная детская кинокомедия о мальчишках, мечтающих стать космонавтами. Двое приятелей построили целый космодром, для экспериментов утащили у подружки щенка Шарика, переименовав его в Марсика, ели одну селедочную пасту из тюбика для тренировок, и воевали с жадным спекулянтом Закурдаевым, который заминировал свой сад, чтоб мальчишки туда не лазали. В ткань фильма органично и изобретательно вплетены мультипликационные вставки.
Качество: VHSRip
Формат: AVI
Видео: XviD, 1212 кбит/с, 624x464, 23.976 к/с
Аудио : Русский (MP3, 2 ch, 128 Кбит/с)
Работа над релизом:
Сетевая раздача


Дополнительно

================================================
Для Украины: рип и оригинальный ДВД дополнительно залиты в файлохранилище
Для удаления,добавления и извлечения дорожек в mkv используйте бесплатную портативную mkvmerge GUI 7.1.0
Для присоединения потом дорожек к avi воспользуйтесь VirtualDubMod

Знаете ли вы, что...

Отзывы

MediaInfo

Общее
Полное имя : F:\Ulica.kosmonavtov.1963.XviD.VHSRip.by.slavnus.avi
Формат : AVI
Формат/Информация : Audio Video Interleave
Размер файла : 747 Мбайт
Продолжительность : 1 ч. 17 м.
Общий поток : 1350 Кбит/сек
Программа кодирования : VirtualDubMod 1.5.10.3 | www.virtualdub-fr.org || (build 2550/release)
Библиотека кодирования : VirtualDubMod build 2550/release
Видео
Идентификатор : 0
Формат : MPEG-4 Visual
Профиль формата : Advanced Simple@L5
Параметр BVOP формата : 2
Параметр QPel формата : Нет
Параметр GMC формата : Без точки перехода
Параметр матрицы формата : Default (H.263)
Идентификатор кодека : XVID
Идентификатор кодека/Подсказка : XviD
Продолжительность : 1 ч. 17 м.
Битрейт : 1212 Кбит/сек
Ширина : 624 пикселя
Высота : 464 пикселя
Соотношение сторон : 4:3
Частота кадров : 25,000 кадров/сек
Цветовое пространство : YUV
Субдискретизация насыщенности : 4:2:0
Битовая глубина : 8 бит
Тип развёртки : Прогрессивная
Метод сжатия : С потерями
Бит/(Пиксели*Кадры) : 0.167
Размер потока : 671 Мбайт (90%)
Библиотека кодирования : XviD 1.2.1 (UTC 2008-12-04)
Аудио
Идентификатор : 1
Формат : MPEG Audio
Версия формата : Version 1
Профиль формата : Layer 3
Режим : Joint stereo
Расширение режима : MS Stereo
Идентификатор кодека : 55
Идентификатор кодека/Подсказка : MP3
Продолжительность : 1 ч. 17 м.
Вид битрейта : Постоянный
Битрейт : 128 Кбит/сек
Каналы : 2 канала
Частота : 48,0 КГц
Метод сжатия : С потерями
Размер потока : 70,8 Мбайт (9%)
Выравнивание : Соединение по промежуткам
Продолжительность промежутка : 40 мс. (1,00 видеокадр)
Время предзагрузки промежутка : 504 мс.
Библиотека кодирования : LAME3.99r
Настройки программы : -m j -V 4 -q 5 -lowpass 17 -b 128

Скриншоты






Скринлист

cd Рип дополнительно залит на mail.ru cd2


Last edited by admin on 2014-10-09 10:33; edited 1 time in total
[Profile] [PM]

admin ®

Gender: Male

Longevity: 7 years 11 months

Posts: 4797

Post 09-Oct-2014 10:28 (after 28 seconds)

[Quote]

Сетевой торрент
[Profile] [PM]
Display posts:    
Reply to topic

Current time is: 05-Aug 01:06

All times are UTC + 3



You cannot post new topics in this forum
You cannot reply to topics in this forum
You cannot edit your posts in this forum
You cannot delete your posts in this forum
You cannot vote in polls in this forum
You cannot attach files in this forum
You cannot download files in this forum