Пленки Квестора / The Questor Tapes (Ричард А. Колла) [1974 г., фантастика, DVDRip-AVC] ЛО (kosmoaelita-RollingHead), СТ (Vargnatt)

Reply to topic
 
Author Message

admin ®

Gender: Male

Longevity: 7 years

Posts: 4725

Location: Україна

Post 14-Sep-2012 13:46

[Quote]

Пленки Квестора / The Questor Tapes
Год выпуска: 1974
Страна: США, Jeffrey Hayes Productions, Universal TV
Жанр: фантастика
Продолжительность: 01:31:57
Перевод: ЛО (kosmoaelita-RollingHead), субтитры (Vargnatt)
Режиссер: Ричард А. Колла
В ролях: Роберт Фоксуорт, Майк Фаррелл, Джон Вернон, Лью Эйрз, Джеймс Шигета, Роберт Дуглас, Дана Уинтер, Эллен Уэстон, Маджел Бэррет, Рубен Сингер
Описание: Проект Квестор - детище гениального доктора Васловика, который мечтает создать андроида-суперчеловека.И хотя доктор исчезает, а вместе с ним и половина его программной пленки, его коллеги продолжают работу над проектом и наконец, преуспевают...
Качество: DVDRip-AVC
Формат: MKV
Видео: x264, 1834 кбит/с, 720x552
Аудио 1: Русский RollingHead (AC3, 2 ch, 192 Кбит/с)
Аудио 2: Английский (AC3, 2 ch, 224 Кбит/с)
Аудио 3: Немецкий (AC3, 2 ch, 192 Кбит/с)
Субтитры : Русские, немецкие


Релиз

Релиз kosmoaelita.com
ДВД9 куплен в Германии для kosmoaelita.com
Рип с двд и монтаж - sasha20072007
Русская озвучка - RollingHead
Субтитры: Vargnatt
Редакт: sasha20072007, slavnus
В контейнере также присутствует дорожка с чистым звуком (.flac)
Для Украины: рип и оригин. ДВД9 дополнительно залиті в файлохранилище
Для удаления и добавления дорожек в mkv используйте бесплатную mkvmerge GUI 5.80

Дополнительно

Also Known As (AKA)
Ein Android wird gejagt West Germany
Ein Computer wird gejagt West Germany
Proyecto Androide Spain
Timerunner Finland

MediaInfo

Общее
Уникальный идентификатор : 182371462939536458925980018818718907574 (0x8933775574958D9EB721979E09843CB6)
Полное имя : F:\Пленки Квестора 1974.x264.DVDRip.kosmoaelita.com.mkv
Формат : Matroska
Версия формата : Version 4 / Version 2
Размер файла : 1,70 Гбайт
Продолжительность : 1 ч. 31 м.
Режим общего битрейта : Переменный
Общий поток : 2640 Кбит/сек
Название фильма : The Questor Tapes / 1974 / Пленки Квестора / rip by sasha20072007 (2012-08-14)
Дата кодирования : UTC 2010-02-22 21:41:31
Программа кодирования : mkvmerge v5.8.0 ('No Sleep / Pillow') built on Sep 30 2012 10:57:14
Библиотека кодирования : libebml v1.3.0 + libmatroska v1.4.0
Attachment : Yes / Yes / Yes / Yes / Yes / Yes / Yes / Yes / Yes / Yes / Yes / Yes / Yes / Yes / Yes / Yes
Видео
Идентификатор : 1
Формат : AVC
Формат/Информация : Advanced Video Codec
Профиль формата : High@L4.1
Параметр CABAC формата : Да
Параметр ReFrames формата : 8 кадров
Идентификатор кодека : V_MPEG4/ISO/AVC
Номинальный битрейт : 1834 Кбит/сек
Ширина : 720 пикселей
Высота : 552 пикселя
Соотношение сторон : 4:3
Режим частоты кадров : Переменный
Частота кадров в оригинале : 25,000 кадров/сек
Цветовое пространство : YUV
Субдискретизация насыщенности : 4:2:0
Битовая глубина : 8 бит
Тип развёртки : Прогрессивная
Бит/(Пиксели*Кадры) : 0.185
Библиотека кодирования : x264 core 125 r2200 999b753
Настройки программы : cabac=1 / ref=8 / deblock=1:-2:-1 / analyse=0x3:0x133 / me=umh / subme=11 / psy=1 / psy_rd=1.00:0.19 / mixed_ref=1 / me_range=24 / chroma_me=1 / trellis=2 / 8x8dct=1 / cqm=0 / deadzone=21,11 / fast_pskip=1 / chroma_qp_offset=-3 / threads=6 / lookahead_threads=1 / sliced_threads=0 / nr=0 / decimate=1 / interlaced=0 / bluray_compat=0 / constrained_intra=0 / bframes=8 / b_pyramid=2 / b_adapt=2 / b_bias=0 / direct=3 / weightb=1 / open_gop=0 / weightp=2 / keyint=220 / keyint_min=22 / scenecut=40 / intra_refresh=0 / rc_lookahead=60 / rc=2pass / mbtree=1 / bitrate=1834 / ratetol=1.0 / qcomp=0.60 / qpmin=0 / qpmax=69 / qpstep=4 / cplxblur=20.0 / qblur=0.5 / vbv_maxrate=17500 / vbv_bufsize=14000 / nal_hrd=none / ip_ratio=1.30 / aq=1:0.80
Default : Да
Forced : Нет
Основные цвета : BT.601 PAL
Характеристики трансфера : BT.470 System B, BT.470 System G
Коэффициенты матрицы : BT.601
Аудио #1
Идентификатор : 2
Формат : AC-3
Формат/Информация : Audio Coding 3
Расширение режима : CM (complete main)
Параметр Endianness формата : Big
Идентификатор кодека : A_AC3
Продолжительность : 1 ч. 31 м.
Вид битрейта : Постоянный
Битрейт : 192 Кбит/сек
Каналы : 2 канала
Расположение каналов : Front: L R
Частота : 48,0 КГц
Битовая глубина : 16 бит
Метод сжатия : С потерями
Размер потока : 126 Мбайт (7%)
Заголовок : Русский ЛО (RollingHead)
Язык : Russian
Default : Да
Forced : Нет
Аудио #2
Идентификатор : 3
Формат : AC-3
Формат/Информация : Audio Coding 3
Расширение режима : CM (complete main)
Параметр Endianness формата : Big
Идентификатор кодека : A_AC3
Продолжительность : 1 ч. 31 м.
Вид битрейта : Постоянный
Битрейт : 224 Кбит/сек
Каналы : 2 канала
Расположение каналов : Front: L R
Частота : 48,0 КГц
Битовая глубина : 16 бит
Метод сжатия : С потерями
Размер потока : 147 Мбайт (8%)
Язык : English
Default : Нет
Forced : Нет
Аудио #3
Идентификатор : 4
Формат : AC-3
Формат/Информация : Audio Coding 3
Расширение режима : CM (complete main)
Параметр Endianness формата : Big
Идентификатор кодека : A_AC3
Продолжительность : 1 ч. 31 м.
Вид битрейта : Постоянный
Битрейт : 192 Кбит/сек
Каналы : 2 канала
Расположение каналов : Front: L R
Частота : 48,0 КГц
Битовая глубина : 16 бит
Метод сжатия : С потерями
Размер потока : 126 Мбайт (7%)
Язык : German
Default : Нет
Forced : Нет
Аудио #4
Идентификатор : 5
Формат : FLAC
Формат/Информация : Free Lossless Audio Codec
Идентификатор кодека : A_FLAC
Продолжительность : 1 ч. 31 м.
Вид битрейта : Переменный
Каналы : 2 канала
Частота : 48,0 КГц
Битовая глубина : 16 бит
Заголовок : Русский (Чистый звук)
Библиотека кодирования : libFLAC 20080709 (UTC 2008-07-09)
Язык : Russian
Default : Нет
Forced : Нет
Текст #1
Идентификатор : 6
Формат : VobSub
Идентификатор кодека : S_VOBSUB
Идентификатор кодека/Информация : The same subtitle format used on DVDs
Заголовок : Русский (Vargnatt) VobSub
Язык : Russian
Default : Да
Forced : Нет
Текст #2
Идентификатор : 7
Формат : UTF-8
Идентификатор кодека : S_TEXT/UTF8
Идентификатор кодека/Информация : UTF-8 Plain Text
Заголовок : Русский (Vargnatt) srt
Язык : Russian
Default : Нет
Forced : Нет
Текст #3
Идентификатор : 8
Формат : VobSub
Идентификатор кодека : S_VOBSUB
Идентификатор кодека/Информация : The same subtitle format used on DVDs
Язык : German
Default : Нет
Forced : Нет
Меню
00:00:00.000 : :Chapter 01
00:01:05.400 : :Chapter 02
00:01:28.800 : :Chapter 03
00:07:31.800 : :Chapter 04
00:14:36.000 : :Chapter 05
00:23:50.400 : :Chapter 06
00:36:28.200 : :Chapter 07
00:56:07.200 : :Chapter 08
01:07:44.400 : :Chapter 09
01:17:09.000 : :Chapter 10
01:20:27.000 : :Chapter 11
01:21:25.800 : :Chapter 12
01:22:43.800 : :Chapter 13
01:23:22.800 : :Chapter 14
01:29:41.400 : :Chapter 15
01:31:33.000 : :Chapter 16
01:31:54.600 : :Chapter 17

Пример субтитров

1
00:00:03,480 --> 00:00:09,140
DVD9 приобретен для
www. kosmoaelita. com
2
00:00:09,480 --> 00:00:12,440
ПЛЕНКИ КВЕСТОРА
(The Questor Tapes, 1974)
3
00:01:42,480 --> 00:01:43,440
Робинсон, готов?
4
00:01:45,239 --> 00:01:46,280
Да, сэр.
5
00:02:01,280 --> 00:02:02,480
Вы разобрались с его функционалом, доктор?
6
00:02:04,040 --> 00:02:06,320
Элементы глазного яблока полностью
повторяют человеческий глаз,
7
00:02:06,959 --> 00:02:11,200
насчёт механизма движения,
мы пока не поняли.
8
00:02:12,759 --> 00:02:14,480
Готовность к отключению
от общего контроля.
9
00:02:28,479 --> 00:02:31,240
Открыть цепи для
первого программного пакета.
10
00:02:51,960 --> 00:02:53,440
Приготовить симулятор.
11
00:02:53,520 --> 00:02:55,080
Готов, сэр.
12
00:02:55,159 --> 00:02:56,680
Отключение.
13
00:02:59,199 --> 00:03:02,160
Симуляция сердцебиения стабильная, 80.
14
00:03:03,039 --> 00:03:06,160
Симуляция дыхания держится на 21-м.
15
00:03:06,400 --> 00:03:09,160
Температура кожи 36,6 градусов.
16
00:03:09,240 --> 00:03:11,880
Дайте один пункт ZEA.
17
00:03:11,960 --> 00:03:13,000
Стабильно.
18
00:03:17,840 --> 00:03:21,920
А он неплохо справляется.
19
00:03:23,439 --> 00:03:26,840
Проблемы, Робинсон?
20
00:03:27,800 --> 00:03:28,480
Нет, сэр.

Скриншоты



cd Рип дополнительно залит на mail.ru cd2


Last edited by admin on 2015-04-28 10:43; edited 3 times in total
[Profile] [PM]

Guest

Gender: Unknown

Post 30-Sep-2012 13:17 (after 15 days)

[Quote]

Спасибо!
 

admin ®

Gender: Male

Longevity: 7 years

Posts: 4725

Location: Україна

Post 04-Nov-2012 22:12 (after 1 month 4 days)

[Quote]

Торрент перезалит.Добавлена русская озвучка.
[Profile] [PM]
Display posts:    
Reply to topic

Current time is: 22-Sep 08:55

All times are UTC + 3



You cannot post new topics in this forum
You cannot reply to topics in this forum
You cannot edit your posts in this forum
You cannot delete your posts in this forum
You cannot vote in polls in this forum
You cannot attach files in this forum
You cannot download files in this forum