Двухголовый трансплантат / The Incredible 2-Headed Transplant (Anthony M. Lanza) [1971, США, ужасы, фантастика, DVDRip] ПД (НТВ+), ЛО

Reply to topic
 
Author Message

admin ®

Gender: Male

Longevity: 8 years 2 months

Posts: 4796

Post 13-Sep-2014 13:13

[Quote]

Двухголовый трансплантат / The Incredible 2-Headed Transplant
Страна: США, Harlequin Pictures, Mutual General Corp.
Жанр: ужасы, фантастика
Год выпуска: 1971
Продолжительность 1: 01:28:09
Продолжительность 2: 01:23:02
Перевод 1: Русский ПД (НТВ+) - Н.Казначеева и Д.Эльдаров по переводу Ю.Сербина
Перевод 2: ЛО
Режиссер: Энтони М. Ланза / Anthony M. Lanza
В ролях:
Bruce Dern ... Roger
Pat Priest ... Linda
Casey Kasem ... Ken
Albert Cole ... Cass
John Bloom ... Danny
Berry Kroeger ... Max
Larry Vincent ... Andrew
Jack Lester ... Sheriff
Jerry Patterson ... Deputy
Darlene Duralia ... Miss Pierce
Raymond Thorne ... Motorcyclist (as Ray Thorn)
Gary Kent ... Motorcyclist (as Donald Brody)
Mary Ellen Clawsen ... Motorcyclist
Janice P. Gelman ... Teenager
Mike Espe ... Teenager
Описание: Богатый и сумасбродный ученый доктор Роджер Жирар проводит анти-научные эксперименты по трансплантации головы. Однажды в его поместье забирается сбежавший из тюрьмы опасный преступник Мануэль Касс. Его обнаруживает управляющий поместьем, но Касс убивает мужчину, который ранит его. У погибшего остается умственно отсталый сын Дэнни, которого в результате этого потрясения совершенно покидает чувство реальности. Тяжело раненного Касса обнаруживает доктор Жирар, которому приходит в голову очередная безумная идея. Он решает трансплантировать голову Касса в тело ничего не понимающего Дэнни. В результате, голова преступника Касса, естественно, начинает контролировать тело бестолкового Дэнни. В конце концов, получившееся монстрообразное чудовище вырывается из лаборатории доктора Жирара на волю и начинает терроризировать жителей близлежащей округи…
Качество: DVDRip
Формат: MKV
Видео: xvid, 1761 кбит/с, 704x384, 23.976 к/с
Аудио 1: Русский ПД (НТВ+) (AC3, 2 ch, 192 Кбит/с)
Аудио 2: Русский ЛО (AC3, 2 ch, 192 Кбит/с)
Аудио 3: Английский (AC3, 2 ch, 192 Кбит/с)
===============================================
Качество: DVDRip
Формат: MKV
Видео: xvid, 2105 кбит/с, 720x548, 23.976 к/с
Аудио 1: Русский ЛО (AC3, 2 ch, 192 Кбит/с)
Аудио 2: Английский (AC3, 2 ch, 192 Кбит/с)
Работа над релизом:
Видеоряд широкоэкранной версии найден в сети.
Рип полноэкранной версии с DVD9 c CG - sasha20072007 (kosmoaelita)
Вся работа со звуком и контейнером - kosmoaelita
Сравнение версий



Пример русской ЛО озвучки

Пример ПД озвучки НТВ+

Дополнительно

слоган «Two heads crafted on the body of a giant... The most fearsome living force ever created by man»
рейтинг MPAA лицам до 17 лет обязательно присутствие взрослого
Also Known As (AKA)
The Incredible Transplant
Brazil (cable TV title) O Incrível Transplante de Duas Cabeças
Germany (TV title) Der Mann mit den zwei Köpfen
Denmark Manden med de 2 hoveder
Spain El increíble transplante bicéfalo
Finland Uskomaton kudossiirto
France Amok, l'homme à deux têtes
France (video title) Mutation
Greece (transliterated ISO-LATIN-1 title) O dikefalos
USA (DVD title) The Incredible Two-Headed Transplant
================================================
Для Украины: рип и оригинальный ДВД дополнительно залиты в файлохранилище
Для удаления,добавления и извлечения дорожек в mkv используйте бесплатную портативную mkvmerge GUI 6.6.0
Для присоединения потом дорожек к avi воспользуйтесь VirtualDubMod

Отзывы

Вот бы, на это, ремейк сняли, с современными спецэффектами, любопытно получилось, наверно

Рецензия

Лог кодирования 2

MediaInfo 1

Общее
Уникальный идентификатор : 245317257610601596291720110830452235179 (0xB88E629E7B065195BB7710B9C4305BAB)
Полное имя : F:\The Incredible 2-Headed Transplant 1971 kosmoaelita\The Incredible 2-Headed Transplant 1971.XviD.DVDRip.2xRus.kosmoaelita.mkv
Формат : Matroska
Версия формата : Version 4 / Version 2
Размер файла : 1,47 Гбайт
Продолжительность : 1 ч. 28 м.
Общий поток : 2381 Кбит/сек
Название фильма : The Incredible 2-Headed Transplant 1971
Дата кодирования : UTC 2015-02-08 11:55:12
Программа кодирования : mkvmerge v6.6.0 ('The Edge Of The In Between') built on Dec 1 2013 17:55:00
Библиотека кодирования : libebml v1.3.0 + libmatroska v1.4.1
Видео
Идентификатор : 1
Формат : MPEG-4 Visual
Профиль формата : Advanced Simple@L5
Параметр BVOP формата : Да
Параметр QPel формата : Нет
Параметр GMC формата : Без точки перехода
Параметр матрицы формата : Выборочная
Идентификатор кодека : V_MS/VFW/FOURCC / XVID
Идентификатор кодека/Подсказка : XviD
Продолжительность : 1 ч. 28 м.
Битрейт : 1758 Кбит/сек
Ширина : 704 пикселя
Высота : 384 пикселя
Соотношение сторон : 1,85:1
Режим частоты кадров : Постоянный
Частота кадров : 23,976 кадра/сек
Цветовое пространство : YUV
Субдискретизация насыщенности : 4:2:0
Битовая глубина : 8 бит
Тип развёртки : Прогрессивная
Метод сжатия : С потерями
Бит/(Пиксели*Кадры) : 0.271
Размер потока : 1,08 Гбайт (74%)
Библиотека кодирования : XviD 1.3.0.dev55
Default : Да
Forced : Нет
Аудио #1
Идентификатор : 2
Формат : AC-3
Формат/Информация : Audio Coding 3
Расширение режима : CM (complete main)
Параметр Endianness формата : Big
Идентификатор кодека : A_AC3
Продолжительность : 1 ч. 28 м.
Вид битрейта : Постоянный
Битрейт : 192 Кбит/сек
Каналы : 2 канала
Расположение каналов : Front: L R
Частота : 48,0 КГц
Битовая глубина : 16 бит
Метод сжатия : С потерями
Размер потока : 121 Мбайт (8%)
Заголовок : Русский ПД (НТВ+) - Н.Казначеева и Д.Эльдаров по переводу Ю.Сербина
Язык : Russian
Default : Да
Forced : Нет
Аудио #2
Идентификатор : 3
Формат : AC-3
Формат/Информация : Audio Coding 3
Расширение режима : CM (complete main)
Параметр Endianness формата : Big
Идентификатор кодека : A_AC3
Продолжительность : 1 ч. 28 м.
Вид битрейта : Постоянный
Битрейт : 192 Кбит/сек
Каналы : 2 канала
Расположение каналов : Front: L R
Частота : 48,0 КГц
Битовая глубина : 16 бит
Метод сжатия : С потерями
Размер потока : 121 Мбайт (8%)
Заголовок : Русский ЛО
Язык : Russian
Default : Нет
Forced : Нет
Аудио #3
Идентификатор : 4
Формат : AC-3
Формат/Информация : Audio Coding 3
Расширение режима : CM (complete main)
Параметр Endianness формата : Big
Идентификатор кодека : A_AC3
Продолжительность : 1 ч. 28 м.
Вид битрейта : Постоянный
Битрейт : 192 Кбит/сек
Каналы : 2 канала
Расположение каналов : Front: L R
Частота : 48,0 КГц
Битовая глубина : 16 бит
Метод сжатия : С потерями
Размер потока : 121 Мбайт (8%)
Язык : English
Default : Нет
Forced : Нет

MediaInfo 2

Общее
Уникальный идентификатор : 171559691187607873766363861184597508947 (0x811131D4A295BEB5842DC4E3D354C353)
Полное имя : F:\The Incredible 2-Headed Transplant 1971 kosmoaelita\The Incredible 2-Headed Transplant 1971.x264.DVDRip.4x3.kosmoaelita.mkv
Формат : Matroska
Версия формата : Version 4 / Version 2
Размер файла : 1,45 Гбайт
Продолжительность : 1 ч. 23 м.
Общий поток : 2493 Кбит/сек
Название фильма : The Incredible 2-Headed Transplant 1971 / rip from NTSC DVD5 by sasha20072007 (kosmoaelita) (2014-09-13), crf=19.45
Дата кодирования : UTC 2014-09-13 14:45:27
Программа кодирования : mkvmerge v6.6.0 ('The Edge Of The In Between') built on Dec 1 2013 17:55:00
Библиотека кодирования : libebml v1.3.0 + libmatroska v1.4.1
DURATION : 01:23:02.304000000
NUMBER_OF_FRAMES : 155697
NUMBER_OF_BYTES : 119575296
_STATISTICS_WRITING_APP : mkvmerge v7.1.0 ('Good Love') 32bit built on Jul 27 2014 12:59:18
_STATISTICS_WRITING_DATE_UTC : 2014-09-13 13:57:54
_STATISTICS_TAGS : BPS DURATION NUMBER_OF_FRAMES NUMBER_OF_BYTES
Attachment : Yes / Yes
Видео
Идентификатор : 1
Формат : AVC
Формат/Информация : Advanced Video Codec
Профиль формата : High@L4.1
Параметр CABAC формата : Да
Параметр ReFrames формата : 10 кадров
Идентификатор кодека : V_MPEG4/ISO/AVC
Продолжительность : 1 ч. 23 м.
Битрейт : 2105 Кбит/сек
Ширина : 720 пикселей
Высота : 548 пикселей
Соотношение сторон : 4:3
Режим частоты кадров : Постоянный
Частота кадров : 23,976 кадра/сек
Цветовое пространство : YUV
Субдискретизация насыщенности : 4:2:0
Битовая глубина : 8 бит
Тип развёртки : Прогрессивная
Бит/(Пиксели*Кадры) : 0.223
Размер потока : 1,19 Гбайт (83%)
Библиотека кодирования : x264 core 130 r2273 b3065e6
Настройки программы : cabac=1 / ref=10 / deblock=1:-1:-1 / analyse=0x3:0x133 / me=umh / subme=11 / psy=1 / psy_rd=0.99:0.14 / mixed_ref=1 / me_range=24 / chroma_me=1 / trellis=2 / 8x8dct=1 / cqm=0 / deadzone=21,11 / fast_pskip=1 / chroma_qp_offset=-3 / threads=6 / lookahead_threads=1 / sliced_threads=0 / nr=0 / decimate=1 / interlaced=0 / bluray_compat=0 / constrained_intra=0 / bframes=10 / b_pyramid=2 / b_adapt=2 / b_bias=0 / direct=3 / weightb=1 / open_gop=0 / weightp=2 / keyint=210 / keyint_min=21 / scenecut=40 / intra_refresh=0 / rc_lookahead=60 / rc=2pass / mbtree=1 / bitrate=2105 / ratetol=1.0 / qcomp=0.63 / qpmin=0 / qpmax=69 / qpstep=4 / cplxblur=20.0 / qblur=0.5 / ip_ratio=1.25 / aq=1:0.90
Default : Да
Forced : Нет
Основные цвета : BT.601 PAL
Характеристики трансфера : BT.470 System B, BT.470 System G
Коэффициенты матрицы : BT.601
Аудио #1
Идентификатор : 2
Формат : AC-3
Формат/Информация : Audio Coding 3
Расширение режима : CM (complete main)
Параметр Endianness формата : Big
Идентификатор кодека : A_AC3
Продолжительность : 1 ч. 23 м.
Вид битрейта : Постоянный
Битрейт : 192 Кбит/сек
Каналы : 2 канала
Расположение каналов : Front: L R
Частота : 48,0 КГц
Битовая глубина : 16 бит
Метод сжатия : С потерями
Размер потока : 114 Мбайт (8%)
Заголовок : Русский ЛО
Язык : Russian
Default : Да
Forced : Нет
Аудио #2
Идентификатор : 3
Формат : AC-3
Формат/Информация : Audio Coding 3
Расширение режима : CM (complete main)
Параметр Endianness формата : Big
Идентификатор кодека : A_AC3
Продолжительность : 1 ч. 23 м.
Вид битрейта : Постоянный
Битрейт : 192 Кбит/сек
Каналы : 2 канала
Расположение каналов : Front: L R
Частота : 48,0 КГц
Битовая глубина : 16 бит
Метод сжатия : С потерями
Размер потока : 114 Мбайт (8%)
Язык : English
Default : Нет
Forced : Нет
Меню
00:16:44.570 : en:00:16:44.570
00:40:18.950 : en:00:40:18.950
01:01:01.191 : en:01:01:01.191
01:23:02.678 : en:01:23:02.678
01:31:04.759 : en:01:31:04.759
01:31:42.764 : en:01:31:42.764
01:31:45.767 : en:01:31:45.767
01:33:52.894 : en:01:33:52.894
01:34:20.655 : en:01:34:20.655
01:34:24.726 : en:01:34:24.726
01:34:37.438 : en:01:34:37.438
01:34:56.891 : en:01:34:56.891
01:47:16.797 : en:01:47:16.797
02:10:24.683 : en:02:10:24.683
02:27:05.450 : en:02:27:05.450
02:57:00.643 : en:02:57:00.643
03:07:10.553 : en:03:07:10.553
03:08:11.314 : en:03:08:11.314
03:09:12.308 : en:03:09:12.308
03:09:23.318 : en:03:09:23.318

Скринлист 1

Скринлист 2

Скриншоты





















cd Рип дополнительно залит на mail.ru cd2


Last edited by admin on 2015-02-08 15:21; edited 12 times in total
[Profile] [PM]

admin ®

Gender: Male

Longevity: 8 years 2 months

Posts: 4796

Post 13-Sep-2014 13:14 (after 1 minute)

[Quote]

Представлены широкоэкранная версия (обрезано сверху м снизу)
и полноэкранная версия с несколькими отсутствующими диалогами
Сравнение версий
[Profile] [PM]

Трамвай-фильм

Gender: Male

Longevity: 6 years 3 months

Posts: 1883

Location: Россия

Post 13-Sep-2014 13:46 (after 32 minutes)

[Quote]

довольно нудное кино, смотрел лет 5 назад, примерно.


Last edited by Трамвай-фильм on 2015-02-08 14:53; edited 1 time in total
[Profile] [PM]

Guest

Gender: Unknown

Post 13-Sep-2014 15:09 (after 1 hour 22 minutes)

[Quote]

Главный прикол фильма - две головы. У Троллей в сказках тоже иногда две головы бывают. Наверно из сказок идея и взята.
 

Трамвай-фильм

Gender: Male

Longevity: 6 years 3 months

Posts: 1883

Location: Россия

Post 13-Sep-2014 17:32 (after 2 hours 23 minutes)

[Quote]

скорее из опытов советских врачей!
[Profile] [PM]

$Shorox

Gender: Male

Longevity: 7 years 11 months

Posts: 1887

Post 13-Sep-2014 18:05 (after 32 minutes)

[Quote]

Трамвай-фильм,
Двухголовых собак и прочую живность вроде только один из советских врачей делал. За это ему коллеги сильно не одобрям-с делали.
[Profile] [PM]

Трамвай-фильм

Gender: Male

Longevity: 6 years 3 months

Posts: 1883

Location: Россия

Post 13-Sep-2014 20:22 (after 2 hours 16 minutes)

[Quote]

Зато западные коллеги рукоплескали ! И даже пытались базяну одвухглавить! Фильм из этой оперы, по моему мнению.
[Profile] [PM]

Guest

Gender: Unknown

Post 14-Sep-2014 00:49 (after 4 hours)

[Quote]

Тут главная соль фильма в том, что одна голова была хорошой, а другая - плохой.
У шизофреников это внутри себя личность раздваивается, а тут так сказать наружу вылезло.
 

$Shorox

Gender: Male

Longevity: 7 years 11 months

Posts: 1887

Post 08-Feb-2015 13:08 (after 4 months 23 days)

[Quote]

admin,
Невероятный двухголовый трансплантат / The Incredible 2-Headed Transplant (Энтони М. Ланза / Anthony M. Lanza) [1971] - Профессиональный (двухголосый закадровый) НТВ+
[Profile] [PM]

admin ®

Gender: Male

Longevity: 8 years 2 months

Posts: 4796

Post 08-Feb-2015 15:11 (after 2 hours 2 minutes)

[Quote]

Перезалито. К длинной версии добавлена ПД озвучка от НТВ+
[Profile] [PM]
Display posts:    
Reply to topic

Current time is: 02-Dec 21:06

All times are UTC + 3



You cannot post new topics in this forum
You cannot reply to topics in this forum
You cannot edit your posts in this forum
You cannot delete your posts in this forum
You cannot vote in polls in this forum
You cannot attach files in this forum
You cannot download files in this forum