Дьяволица с Марса / Дьявольская девушка с Марса / Devil Girl from Mars (Дэвид МакДональд) [1954 г., Фантастика, DVDRip-AVC] ЛО

Reply to topic
 
Author Message

admin ®

Gender: Male

Longevity: 7 years 2 months

Posts: 4723

Post 14-Sep-2012 01:30

[Quote]

Дьяволица с Марса / Дьявольская девушка с Марса / Devil Girl from Mars
Год выпуска: 1954
Страна: Великобритания, Danziger Productions Ltd
Жанр: Фантастика
Продолжительность: 01:08:33
Перевод: Любительский (одноголосый)
Режиссер: Дэвид МакДональд
В ролях: Патриция Лаффан, Хью МакДермотт, Хэйзел Корт, Питер Рейнольдс, Эдриенн Корри, Джозеф Томелти, Джон Лори, Софи Стюарт, Энтони Ричмонд, Джеймс Эдмунд
Описание: Инопланетянка приземляется на нашей планете и начинает охотиться на мужчин, которые смогут способствовать возрождению ее планеты. Марсианку сопровождает огромный робот. Тем временем сбежавший преступник, ученый и журналистка направляются взглянуть на место падения предполагаемого метеорита…
Качество: DVDRip-AVC
Формат: MKV
Видео: x264, 1283 Кбит/с, 704х528 crf=19
Аудио 1: Русский (AC3, 2 ch, 192 Кбит/с)
Аудио 2: Английский (AC3, 2 ch, 192 Кбит/с)
Субтитры : Испанские

Релиз

Рип с ДВД5, монтаж и обработка русской дорожки - sasha20072007, качество рипа - crf=19
Русскую дорожку пришлось обработать компрессором и эквалайзером, так как оригинальная дорожка была практически не слышна.Русская необработанная оставлена второй дорожкой.
Сравнение с исходником ДВД5
Для Украины: рип и ориг. ДВД дополнительно залит в файлохранилище
Для удаления и добавления дорожек в mkv используйте бесплатную mkvmerge GUI 5.80

Дополнительно

Слоган: «Invasion from Outer Space!...Sights too weird to imagine! Destruction too monstrous to escape!»
Другие названия:
Djävulsflickan från Mars Sweden
La diabla de Marte Spain (imdb display title)
Marte ataca la tierra Mexico (poster title)

Рецензия

...Я вот чего в толк не возьму: что все накинулись на беднягу Эда Вуда? в те чудесные времена все снимали так - тенденция, однако, такая была, общая ситуация.. вот и МакДональд - из когорты тех, кто снимал много, восторженно и жадно - наивно полагая, что количество непременно перейдёт в качество зрительской любви - и в конечном счёте - в золотую строчищу истории кинематографа.. ммда, если бы не наивные восторженные зрители - любители примитивизма - растаяли бы те имена в ядовитой желчи критиков-соотечественников и сомнамбулической Лете апатичных потомков..
Девушка с Марса, как мне показалось, - слегка модернизированная полечка про Пышку, перепёртая на сильно пугательный для граждан середины пятидесятых мотив вторжения всяких неместных чучел.. пришла, то есть, и говорит: для размножения заберу на свою далёкую родину Марс одного из мужчин, кого - давайте выбирать.. а сама показывает всем злобного робота-шкафа, грозя сказать "фас"..и немножко напомнило ещё - великую сагу более позднего периода про Ильзу - девушку из СС (и из всякого разного другого): очень уж вся эта инопланетная униформа для садо-мазо-игрищ мне показалась привлекательной - крррасотища просто..всем, кто с нежностью относится к творениям Вуда.. не того Вуда, который Депп, а который всамделишный..
------------------------------------------------------------------------
Очаровательная инопланетянка приземляется на нашей планете и начинает охотиться на мужчин, которые смогут способствовать возрождению ее планеты. Марсианку сопровождает огромный робот. Тем временем сбежавший преступник, ученый и журналистка направляются взглянуть на место падения предполагаемого метеорита…
Картина поставлена по радиопьесе и напоминает фильм «Марсу нужны женщины». Гримом занимался Джордж Партлтон, работавший над такими картинами, как «Мост через реку Квай» (1957), «Лолита» (1962), «Красная маска смерти» (1964), «Невесты Фу Манчу» (1966), «Ведьмы» (1966), «Саван мумии» (1967), «Франкенштейн создал женщину» (1967), «Резня» (1967), «Затерянный континент» (1968), «Двенадцать стульев» (1970), «Механический апельсин» (1971), «Дом бичевания» (1974), «Кошмар» (1974), «Шизоид» (1976), «Дом перед полуночью» (1979), «Дом длинных теней» (1983). Патрисия Лаффан жаловалась, что ее костюм очень тяжелый и в нем очень жарко. В результате во время съемок ей запрещалось есть и пить, так как она с огромным трудом снимала с себя этот костюм. Оценка 2 балла.

MediaInfo

Общее
Уникальный идентификатор : 215439775695393309790069201087844109242 (0xA21431079C625261846F1B25D9BCCBBA)
Полное имя : E:\Djavolskaja.devushka.s.Marsa.1954.x264.DVDRip.sasha200720.mkv
Формат : Matroska
Версия формата : Version 2
Размер файла : 1,02 Гбайт
Продолжительность : 1 ч. 16 м.
Общий поток : 1897 Кбит/сек
Название фильма : Devil Girl from Mars / Дьявольская девушка с Марса / 1954 / rip by sasha20072007
Дата кодирования : UTC 2012-04-20 20:22:04
Программа кодирования : mkvmerge v5.5.0 ('Healer') built on Apr 16 2012 15:39:18
Библиотека кодирования : libebml v1.2.3 + libmatroska v1.3.0
Attachment : Yes / Yes / Yes
Видео
Идентификатор : 1
Формат : AVC
Формат/Информация : Advanced Video Codec
Профиль формата : High@L4.1
Параметр CABAC формата : Да
Параметр ReFrames формата : 10 кадров
Идентификатор кодека : V_MPEG4/ISO/AVC
Продолжительность : 1 ч. 16 м.
Битрейт : 1283 Кбит/сек
Ширина : 704 пикселя
Высота : 528 пикселей
Соотношение сторон : 4:3
Частота кадров : 23,976 кадра/сек
Цветовое пространство : YUV
Субдискретизация насыщенности : 4:2:0
Битовая глубина : 8 бит
Тип развёртки : Прогрессивная
Бит/(Пиксели*Кадры) : 0.144
Размер потока : 704 Мбайт (68%)
Библиотека кодирования : x264 core 120 r2164 da19765
Настройки программы : cabac=1 / ref=10 / deblock=1:-2:-2 / analyse=0x3:0x133 / me=umh / subme=11 / psy=1 / psy_rd=1.00:0.15 / mixed_ref=1 / me_range=24 / chroma_me=1 / trellis=2 / 8x8dct=1 / cqm=0 / deadzone=21,11 / fast_pskip=1 / chroma_qp_offset=-3 / threads=12 / sliced_threads=0 / nr=0 / decimate=1 / interlaced=0 / bluray_compat=0 / constrained_intra=0 / bframes=10 / b_pyramid=2 / b_adapt=2 / b_bias=0 / direct=3 / weightb=1 / open_gop=0 / weightp=2 / keyint=220 / keyint_min=22 / scenecut=40 / intra_refresh=0 / rc_lookahead=60 / rc=crf / mbtree=1 / crf=19.0 / qcomp=0.60 / qpmin=0 / qpmax=69 / qpstep=4 / vbv_maxrate=17500 / vbv_bufsize=14000 / crf_max=0.0 / nal_hrd=none / ip_ratio=1.25 / aq=1:1.00
Default : Да
Forced : Нет
Аудио #1
Идентификатор : 2
Формат : AC-3
Формат/Информация : Audio Coding 3
Расширение режима : CM (complete main)
Параметр Endianness формата : Big
Идентификатор кодека : A_AC3
Продолжительность : 1 ч. 16 м.
Вид битрейта : Постоянный
Битрейт : 192 Кбит/сек
Каналы : 2 канала
Расположение каналов : Front: L R
Частота : 48,0 КГц
Битовая глубина : 16 бит
Метод сжатия : С потерями
Размер потока : 105 Мбайт (10%)
Заголовок : Русский одноголосый (компрессированный)
Язык : Russian
Default : Да
Forced : Да
Аудио #2
Идентификатор : 3
Формат : AC-3
Формат/Информация : Audio Coding 3
Расширение режима : CM (complete main)
Параметр Endianness формата : Big
Идентификатор кодека : A_AC3
Продолжительность : 1 ч. 16 м.
Вид битрейта : Постоянный
Битрейт : 192 Кбит/сек
Каналы : 2 канала
Расположение каналов : Front: L R
Частота : 48,0 КГц
Битовая глубина : 16 бит
Метод сжатия : С потерями
Размер потока : 105 Мбайт (10%)
Заголовок : Русский одноголосый
Язык : Russian
Default : Нет
Forced : Нет
Аудио #3
Идентификатор : 4
Формат : AC-3
Формат/Информация : Audio Coding 3
Расширение режима : CM (complete main)
Параметр Endianness формата : Big
Идентификатор кодека : A_AC3
Продолжительность : 1 ч. 16 м.
Вид битрейта : Постоянный
Битрейт : 192 Кбит/сек
Каналы : 1 канал
Расположение каналов : Front: C
Частота : 48,0 КГц
Битовая глубина : 16 бит
Метод сжатия : С потерями
Размер потока : 105 Мбайт (10%)
Язык : English
Default : Нет
Forced : Нет
Текст
Идентификатор : 5
Формат : UTF-8
Идентификатор кодека : S_TEXT/UTF8
Идентификатор кодека/Информация : UTF-8 Plain Text
Язык : Spanish
Default : Нет
Forced : Нет
Меню
00:00:00.000 : :Chapter 01
00:01:30.067 : :Chapter 02
00:10:52.367 : :Chapter 03
00:14:46.701 : :Chapter 04
00:23:43.701 : :Chapter 05
00:34:35.868 : :Chapter 06
00:39:06.935 : :Chapter 07
00:45:22.369 : :Chapter 08
00:56:15.836 : :Chapter 09
01:02:06.370 : :Chapter 10
01:09:59.937 : :Chapter 11
01:16:15.871 : :Chapter 12
01:16:37.572 : :Chapter 13

Скриншоты



cd Рип дополнительно залит на mail.ru cd2
[Profile] [PM]
Quick Reply

Name:

            
Heads necessary to send messages to enable JavaScript
Display posts:    
Reply to topic

Current time is: 17-Nov 19:09

All times are UTC + 3



You cannot post new topics in this forum
You can reply to topics in this forum
You cannot edit your posts in this forum
You cannot delete your posts in this forum
You cannot vote in polls in this forum
You cannot attach files in this forum
You cannot download files in this forum