Чужой внутри / Неизвестный организм / The Alien Within / Unknown Origin (Скотт П. Леви / Scott P. Levy) [1995 г., Фантастика, ужасы, DVDRip] 3хАО (Котов, , Дольский)

Reply to topic
 
Author Message

admin ®

Gender: Male

Longevity: 8 years 2 months

Posts: 4796

Post 20-Aug-2014 21:29

[Quote]

Чужой внутри / Неизвестный организм / The Alien Within / Unknown Origin
Год выпуска: 1995
Страна: США, Concorde-New Horizons, New Horizons Picture, The Pacific Trust
Жанр: Фантастика, ужасы
Продолжительность: 01:18:30
Перевод 1-3: Авторский одноголосый (Котов. Дольский)
Режиссер: Скотт П. Леви / Scott P. Levy
В ролях:
Roddy McDowall ... Dr. Henry Lazarus
Alex Hyde-White ... Jedidiah Pickett
Melanie Shatner ... Catherine Harding
Don Stroud ... Louis
Rodger Halston ... Wyatt
Emile Levisetti ... Brill
Richard Biggs ... Hawkes
Sha-Ri Pendleton ... Fife
Miro Polo ... Russian Officer
Tim Trevan ... Russian Boy
Описание: Подводный добывающий завод выходит из графика своей повседневной деятельности. Все идет плохо и капитан Jedidiah Pickett (Alex Hyde-White) решает построить график работ иначе: в две смены. И это не кажется чем-то ужасным доктору Henry Lazarus (Roddy McDowall). К счастью, с главной конторы прибывает Catherine Harding (Melanie Shatner) с предложением, как сделать объект более прибыльным. Но до того, как он услышали про «тройные смены», команда получает сигнал бедствия с русской базы и вскоре отправляется в разведку. Выглядит так, будто русские обнаружили космический корабль, и что-то на нем еще осталось живым. Команда, по неведению, притаскивает сию штуку к своей станции. Сокомандники вскоре начинают вести себя довольно странно и чужой оказывается среди них. Или несколько чужих? Задача проста: не дать выбраться в мир страшному монстру..
Качество: DVDRip
Формат: MKV
Видео: xviD, 1089 кбит/с, 512x384, 23.976 к/с
Аудио 1: Русский АО (В.Котов) (AC3, 2 ch, 192 Кбит/с)
Аудио 2: Русский АО () на неозв. Котов) (AC3, 2 ch, 192 Кбит/с)
Аудио 3: Русский АО (А.Дольский) (AC3, 2 ch, 192 Кбит/с)
Аудио 4: Английский (AC3, 2 ch, 192 Кбит/с)
Работа над релизом:
Видеоряд найден в сети
Синхронизация русских дорожек - sasha20072007 (kosmoaelita)
Также на 00:02:00-00:06:00 принудительно вкл рус. субтитры от В.Рутилова



Пример одной из озвучек

Дополнительно

рейтинг MPAA лицам до 17 лет обязательно присутствие взрослого
Also Known As (AKA)
Unknown Origin
Brazil Mistério no Fundo do Mar
Germany (video title) Das Alien in dir
Greece (video title) O apolytos arhon
Poland Obcy miedzy nami
================================================
Для Украины: рип и оригинальный ДВД дополнительно залиты в файлохранилище
Для удаления,добавления и извлечения дорожек в mkv используйте бесплатную портативную mkvmerge GUI 6.6.0
Для присоединения потом дорожек к avi воспользуйтесь VirtualDubMod

Знаете ли вы, что...

Паролем для активации самоуничтожения является «Ностромо». Так назывался космический корабль в фильме «Чужой» (1979) Ридли Скотта.
Фильм был снят за 18 дней

Отзывы

За основу сего "творения" взят "Нечто" 1982 года, "Чужой", "Левиафан", "Глубоководная звезда 6" и другие фильмы данной тематики. Если даже закрыть глаза на то, что в сюжете "Чужого внутри" нет вообще ничего оригинального, а его большая часть просто слизана с вышеупомянутых фильмов, то все равно, для 1995 года выглядит очень убого. Декорации, скорее всего, позаимствованы со склада реквизита среднего пошиба телекомпании, а то и просто собраны своими руками. Очень напоминают декорации из советского сериала "Этот фантастический мир". Тем не менее, фильм посмотрел полностью, не перематывал. Очень позабавили представления о гаджетах будущего (лазерные диски, размером с граммофонную пластинку и проч.), и образе жизни. Спасибо за раздачу, 5/10.
----------------------------------------------------
Исполнительный продюсер в этом фильме старичок Роджер Корман
-------------------------------------------------------

Рецензия

Роджер Корман известен своими пародиями на шедевры мирового кино. Здесь по большей мере фильм похож на известную кинокартину Джона Карпетнера «Нечто».
Авторы фильма показывают недалекое будущее, а именно 2020 год. Земных ресурсов на планете почти не осталось, почти вся поверхность планеты покрыта водой. Человечество ищет способы существования под водой. Нам показывают что-то вроде подводной лодки на которой находится команда исследователей. И вот команда получает сигнал SOS от русской подводной лодки, по прибытию на место они видят, что почти весь экипаж лодки мертв, а выжившие находятся в тяжелом состоянии. Выживших они забирают с собой.
Но вот тут то и начинаются проблемы. Эти выжившие оказывается были заражены чужеродным организмом, который соответственно вырывается наружу и начинает убивать всех подряд.
Сюжет очень банален. Как и в фильме «Нечто», организм находится внутри человека. Как и в фильме, экипаж начинает подозревать друг друга. С самого начала фильма уже понятно, кто останется в живых. Монстр же похож на червяка с фильма «Дрожь земли», только в миниатюре.
Хочу выделить Родди Макдауэлла, который отлично сыграл своего персонажа. Еще можно выделить малоизвестного Роджера Халстона, его персонаж очень позитивный и хорошо мне запомнился. Остальные актеры сыграли на троечку и особо ничем мне не запомнились. Капитан экипажа Алекс Хайд Уайт весь фильм какой-то унылый и неинтересный.
6 из 10

MediaInfo

Общее
Уникальный идентификатор : 211802115940760434106102846513839519568 (0x9F579A8E8A419A748B83130B5672B750)
Полное имя : F:\The Alien Within Unknown Origin 1995.XviD.DVDRip.3xRus.kosmoaelita.mkv
Формат : Matroska
Версия формата : Version 4 / Version 2
Размер файла : 1,04 Гбайт
Продолжительность : 1 ч. 18 м.
Общий поток : 1895 Кбит/сек
Название фильма : Чужой внутри - The Alien Within (Unknown Origin) (1995)
Дата кодирования : UTC 2014-08-20 00:52:26
Программа кодирования : mkvmerge v6.6.0 ('The Edge Of The In Between') built on Dec 1 2013 17:55:00
Библиотека кодирования : libebml v1.3.0 + libmatroska v1.4.1
Видео
Идентификатор : 1
Формат : MPEG-4 Visual
Профиль формата : Advanced Simple@L5
Параметр BVOP формата : Да
Параметр QPel формата : Нет
Параметр GMC формата : Без точки перехода
Параметр матрицы формата : Выборочная
Идентификатор кодека : V_MS/VFW/FOURCC / XVID
Идентификатор кодека/Подсказка : XviD
Продолжительность : 1 ч. 18 м.
Битрейт : 1089 Кбит/сек
Ширина : 512 пикселей
Высота : 384 пикселя
Соотношение сторон : 4:3
Режим частоты кадров : Постоянный
Частота кадров : 23,976 кадра/сек
Цветовое пространство : YUV
Субдискретизация насыщенности : 4:2:0
Битовая глубина : 8 бит
Тип развёртки : Прогрессивная
Метод сжатия : С потерями
Бит/(Пиксели*Кадры) : 0.231
Размер потока : 612 Мбайт (57%)
Библиотека кодирования : XviD 1.2.0SMP (UTC 2006-01-08)
Default : Да
Forced : Нет
Аудио #1
Идентификатор : 2
Формат : AC-3
Формат/Информация : Audio Coding 3
Расширение режима : CM (complete main)
Параметр Endianness формата : Big
Идентификатор кодека : A_AC3
Продолжительность : 1 ч. 18 м.
Вид битрейта : Постоянный
Битрейт : 192 Кбит/сек
Каналы : 2 канала
Расположение каналов : Front: L R
Частота : 48,0 КГц
Битовая глубина : 16 бит
Метод сжатия : С потерями
Размер потока : 108 Мбайт (10%)
Заголовок : Русский АО (В.Котов)
Язык : Russian
Default : Да
Forced : Нет
Аудио #2
Идентификатор : 3
Формат : AC-3
Формат/Информация : Audio Coding 3
Расширение режима : CM (complete main)
Параметр Endianness формата : Big
Идентификатор кодека : A_AC3
Продолжительность : 1 ч. 18 м.
Вид битрейта : Постоянный
Битрейт : 192 Кбит/сек
Каналы : 2 канала
Расположение каналов : Front: L R
Частота : 48,0 КГц
Битовая глубина : 16 бит
Метод сжатия : С потерями
Размер потока : 108 Мбайт (10%)
Заголовок : Русский АО () на неозв. - Котов
Язык : Russian
Default : Нет
Forced : Нет
Аудио #3
Идентификатор : 4
Формат : AC-3
Формат/Информация : Audio Coding 3
Расширение режима : CM (complete main)
Параметр Endianness формата : Big
Идентификатор кодека : A_AC3
Продолжительность : 1 ч. 18 м.
Вид битрейта : Постоянный
Битрейт : 192 Кбит/сек
Каналы : 2 канала
Расположение каналов : Front: L R
Частота : 48,0 КГц
Битовая глубина : 16 бит
Метод сжатия : С потерями
Размер потока : 108 Мбайт (10%)
Заголовок : Русский АО (А.Дольский)
Язык : Russian
Default : Нет
Forced : Нет
Аудио #4
Идентификатор : 6
Формат : AC-3
Формат/Информация : Audio Coding 3
Расширение режима : CM (complete main)
Параметр Endianness формата : Big
Идентификатор кодека : A_AC3
Продолжительность : 1 ч. 18 м.
Вид битрейта : Постоянный
Битрейт : 192 Кбит/сек
Каналы : 2 канала
Расположение каналов : Front: L R
Частота : 48,0 КГц
Битовая глубина : 16 бит
Метод сжатия : С потерями
Размер потока : 108 Мбайт (10%)
Язык : English
Default : Нет
Forced : Нет
Текст
Идентификатор : 5
Формат : UTF-8
Идентификатор кодека : S_TEXT/UTF8
Идентификатор кодека/Информация : UTF-8 Plain Text
Заголовок : Русский форс. на неперевед. места
Язык : Russian
Default : Да
Forced : Нет

Скринлист

Скриншоты













cd Рип дополнительно залит на mail.ru cd2


Last edited by admin on 2014-08-20 21:36; edited 1 time in total
[Profile] [PM]

admin ®

Gender: Male

Longevity: 8 years 2 months

Posts: 4796

Post 20-Aug-2014 21:34 (after 4 minutes)

[Quote]

Помогите опознать, чей голос на ютубе?
[Profile] [PM]

$Shorox

Gender: Male

Longevity: 7 years 11 months

Posts: 1887

Post 21-Aug-2014 18:01 (after 20 hours)

[Quote]

admin,
Голос знакомый, а кто не могу вспомнить.
Фильм стоит посмотреть.
[Profile] [PM]
Display posts:    
Reply to topic

Current time is: 27-Nov 05:09

All times are UTC + 3



You cannot post new topics in this forum
You cannot reply to topics in this forum
You cannot edit your posts in this forum
You cannot delete your posts in this forum
You cannot vote in polls in this forum
You cannot attach files in this forum
You cannot download files in this forum